<?xml version="1.0" standalone="no"?>
<!DOCTYPE svg PUBLIC "-//W3C//DTD SVG 1.1//EN" "http://www.w3.org/Graphics/SVG/1.1/DTD/svg11.dtd" >
<svg xmlns="http://www.w3.org/2000/svg">
<metadata>
This is a custom SVG webfont generated by Font Squirrel.
Copyright   : Copyright 2010 Canonical Ltd  Licensed under the Ubuntu Font Licence 10
Designer    : Dalton Maag Ltd
Foundry     : Dalton Maag Ltd
Foundry URL : httpwwwdaltonmaagcom
</metadata>
<defs>
<font id="webfontir7CsQCC" horiz-adv-x="1163" >
<font-face units-per-em="2048" ascent="1638" descent="-410" />
<missing-glyph horiz-adv-x="491" />
<glyph unicode=" "  horiz-adv-x="491" />
<glyph unicode="&#x09;" horiz-adv-x="491" />
<glyph unicode="&#xa0;" horiz-adv-x="491" />
<glyph unicode="!" horiz-adv-x="604" d="M713 1053q-41 -166 -87 -309.5t-102 -290.5h-233q16 147 36.5 290.5t59.5 309.5l88 366h326zM369 350q72 0 120 -41t48 -125q0 -47 -17.5 -86t-46.5 -66.5t-65.5 -43t-75.5 -15.5q-72 0 -120 41t-48 125q0 47 17.5 86t46 66.5t65.5 43t76 15.5z" />
<glyph unicode="&#x22;" horiz-adv-x="1007" d="M766 1556l-37 -151q-23 -98 -66 -215l-92 -236h-202q8 119 22.5 236t36.5 217l37 149h301zM1212 1556l-37 -151q-23 -98 -66 -215l-92 -236h-202q8 119 22.5 236t36.5 217l37 149h301z" />
<glyph unicode="#" horiz-adv-x="1351" d="M776 348h-227l-146 -348h-262l146 348h-142l58 236h182l104 252h-225l58 235h266l147 348h262l-147 -348h227l148 348h262l-148 -348h144l-58 -235h-184l-104 -252h227l-57 -236h-269l-145 -348h-262zM647 584h227l105 252h-227z" />
<glyph unicode="$" d="M578 264q43 0 87 5t78.5 20.5t56 45.5t21.5 79q0 33 -14 57.5t-39 45t-56 37.5l-65 34l-53 26q-131 66 -189.5 164.5t-58.5 204.5q0 68 24.5 132.5t75 117.5t129 89t187.5 48l55 219h258l-57 -225q78 -16 142.5 -44t105.5 -54l-123 -217q-53 41 -129 62.5t-148 21.5 q-88 0 -151.5 -33t-63.5 -103q0 -29 8.5 -51t28 -42.5t52 -42t83.5 -46.5q59 -31 113.5 -64.5t96.5 -78.5t67.5 -102.5t25.5 -135.5q0 -96 -30.5 -167.5t-87 -123t-135 -81t-175.5 -39.5l-59 -246h-258l61 250q-111 16 -188.5 51t-114.5 61l125 226q23 -16 55.5 -34 t73.5 -32t88.5 -24.5t96.5 -10.5z" />
<glyph unicode="%" horiz-adv-x="1781" d="M575 854q33 0 64 19.5t54.5 57.5t37.5 91t14 121q0 55 -27.5 84.5t-70.5 29.5q-33 0 -64.5 -20t-56 -57t-40 -91.5t-15.5 -121.5q0 -55 30.5 -84t73.5 -29zM1458 1419h295l-1143 -1419h-295zM664 1452q68 0 124 -18.5t97 -56.5t63.5 -94t22.5 -132q0 -117 -35 -208 t-93.5 -154.5t-134 -97.5t-155.5 -34q-68 0 -124 18.5t-97 56.5t-63.5 94.5t-22.5 131.5q0 117 34.5 208t93 154.5t134.5 97.5t156 34zM1427 164q33 0 64 19.5t54.5 57.5t37.5 91t14 121q0 55 -27.5 84.5t-70.5 29.5q-33 0 -64.5 -20.5t-56 -57t-40 -91t-15.5 -122.5 q0 -55 30.5 -83.5t73.5 -28.5zM1516 762q68 0 124 -18.5t97 -56.5t63.5 -94t22.5 -132q0 -117 -35 -208t-93.5 -154.5t-134 -97.5t-155.5 -34q-68 0 -124 18.5t-97 56.5t-63.5 94.5t-22.5 131.5q0 117 34.5 208t93 154.5t134.5 97.5t156 34z" />
<glyph unicode="&#x26;" horiz-adv-x="1357" d="M164 322q0 154 80 265t258 191l35 17q-41 68 -60.5 134t-19.5 130q0 82 31.5 154.5t92 125t145.5 83t192 30.5q88 0 155.5 -23.5t111.5 -62.5t66.5 -91t22.5 -110q0 -51 -18.5 -106t-54.5 -108.5t-91 -100.5t-129 -80l-76 -35l172 -229q51 84 94 207l269 -35 q-88 -223 -207 -377q53 -76 95 -151.5t77 -149.5h-309q-12 27 -28 55l-32 60q-195 -133 -444 -133q-109 0 -189.5 28.5t-134 76.5t-79 108.5t-25.5 126.5zM631 219q53 0 122.5 17.5t147.5 70.5l-239 316l-31 -15q-86 -39 -125 -102.5t-39 -124.5q0 -66 42 -114t122 -48z M727 1051q0 -57 53 -146l25 10q98 45 152.5 97.5t54.5 124.5q0 39 -29 68.5t-90 29.5t-113.5 -46t-52.5 -138z" />
<glyph unicode="'" horiz-adv-x="561" d="M766 1556l-37 -151q-23 -98 -66 -215l-92 -236h-202q8 119 22.5 236t36.5 217l37 149h301z" />
<glyph unicode="(" horiz-adv-x="729" d="M1026 1466q-117 -127 -213 -267t-165.5 -291.5t-108.5 -312.5t-39 -327q0 -129 24.5 -255t77.5 -255l-225 -137q-92 154 -134 317.5t-42 337.5q0 184 46 366.5t129 353.5t198.5 326t254.5 282z" />
<glyph unicode=")" horiz-adv-x="729" d="M-49 -240q117 125 214 265.5t165.5 293t107.5 313.5t39 326q0 129 -24.5 255t-77.5 255l225 138q92 -154 134 -318t42 -338q0 -184 -46 -366.5t-129 -353.5t-198.5 -325.5t-255.5 -281.5z" />
<glyph unicode="*" horiz-adv-x="1028" d="M764 1098q20 18 51 40l63 43q32 22 64.5 39t56.5 25l50 17l81 -254l-49 -17q-27 -8 -61.5 -12t-73.5 -5t-76 -1h-65l54 -38l60 -45q30 -24 56 -48.5t43 -46.5l33 -43l-217 -154l-31 41q-16 20 -31.5 53t-30 69t-24.5 70l-19 64l-18 -64q-10 -35 -24.5 -70.5t-30 -68.5 t-31.5 -53l-31 -41l-217 154l33 43q16 23 43 47l56 48l60 45l54 38h-66q-37 0 -75.5 1t-73.5 5t-62 12l-49 17l82 254l49 -17q25 -8 57.5 -25.5t64.5 -38.5l62 -43q30 -22 52 -40q-10 27 -21.5 62.5t-21.5 72.5t-17.5 72.5t-7.5 62.5v51h266v-51q0 -27 -7 -62.5t-17 -72.5 t-21.5 -72.5t-21.5 -62.5z" />
<glyph unicode="+" d="M258 739h342l90 379h279l-90 -379h342l-64 -256h-342l-90 -379h-279l91 379h-342z" />
<glyph unicode="," horiz-adv-x="514" d="M494 311q-6 -178 -89 -337.5t-202 -307.5l-223 60q78 135 131 280.5t63 304.5h320z" />
<glyph unicode="-" horiz-adv-x="702" d="M217 750h594l-68 -277h-593z" />
<glyph unicode="." horiz-adv-x="516" d="M328 350q72 0 120 -40t48 -126q0 -47 -17.5 -86t-46.5 -66.5t-65.5 -43t-75.5 -15.5q-72 0 -120 40t-48 126q0 47 17.5 86t46 66.5t65.5 43t76 15.5z" />
<glyph unicode="/" horiz-adv-x="892" d="M127 -379h-311l1147 1983h309z" />
<glyph unicode="0" d="M610 233q66 0 121 39t97 102.5t74 144.5t52.5 165t30.5 164t10 141q0 104 -31.5 153.5t-97.5 49.5q-68 0 -123 -39t-98 -102.5t-74.5 -145.5t-52 -166t-31 -163.5t-10.5 -141.5q0 -106 32.5 -153.5t100.5 -47.5zM563 -29q-100 0 -169.5 36t-113.5 95.5t-63.5 134 t-19.5 154.5q0 233 52 428t145 336t224.5 219t290.5 78q100 0 170 -36t114 -95t63.5 -134t19.5 -155q0 -233 -52.5 -427.5t-145.5 -336t-224 -219.5t-291 -78z" />
<glyph unicode="1" d="M410 1124q66 25 137 56.5t142 69.5t138.5 80t122.5 89h213l-342 -1419h-305l246 1022q-72 -41 -156 -75t-160 -58z" />
<glyph unicode="2" d="M891 1452q82 0 152.5 -26.5t123 -72.5t81 -107.5t28.5 -131.5q0 -78 -16.5 -139.5t-55.5 -118.5t-103.5 -116.5t-158.5 -133.5q-55 -43 -112 -82l-110 -80q-54 -41 -105.5 -87t-96.5 -103h610l-61 -254h-944q18 129 63 223t112 171t151 144l182 142l156 124q65 52 105 96 t58.5 83t18.5 82q0 53 -38 89t-97 36q-84 0 -164 -36t-174 -107l-105 223q123 100 246 141t254 41z" />
<glyph unicode="3" d="M971 754q86 -41 133 -126t47 -186q0 -84 -35 -168t-110.5 -151.5t-192.5 -109.5t-281 -42q-233 0 -419 97l110 241q59 -41 147.5 -66.5t180.5 -25.5q57 0 111.5 12.5t95.5 41t65.5 73.5t24.5 111q0 84 -68.5 127t-183.5 43h-131l59 241h148q43 0 90 8.5t86 30t64.5 57 t25.5 93.5q0 72 -49 105.5t-129 33.5q-63 0 -140 -22.5t-159 -65.5l-78 229q100 57 206.5 87t221.5 30q109 0 190.5 -29.5t136 -79t81 -112t26.5 -127.5q0 -53 -17.5 -105.5t-51 -98.5t-85.5 -83.5t-120 -62.5z" />
<glyph unicode="4" d="M932 1059l-112 -111l-118 -124l-115 -131l-106 -130h332zM1307 1419l-207 -856h149l-59 -246h-152l-77 -317h-291l75 317h-608l51 226q66 90 160 203.5t205 232.5t229.5 233.5t233.5 206.5h291z" />
<glyph unicode="5" d="M242 315q72 -43 153.5 -65.5t157.5 -22.5q147 0 225 55.5t78 172.5q0 49 -26.5 89t-86 67.5t-159 43t-242.5 15.5q68 190 129 383.5t109 365.5h757l-61 -254h-506q-20 -74 -44 -148.5t-42 -125.5q123 -10 212 -46t147.5 -91.5t87 -126t28.5 -150.5q0 -115 -38 -209 t-113.5 -159.5t-188 -101.5t-260.5 -36q-43 0 -98 6.5t-113.5 17.5t-115 29.5t-103.5 43.5z" />
<glyph unicode="6" d="M1292 1190q-127 -4 -236.5 -18.5t-200.5 -53.5t-159.5 -104.5t-113.5 -169.5q53 29 123.5 42t132.5 13q76 0 142.5 -23.5t116.5 -71.5t78.5 -120t28.5 -166q0 -133 -43 -234.5t-116.5 -171t-172 -105.5t-206.5 -36q-96 0 -178 33t-142.5 95.5t-95.5 155.5t-35 216 q0 180 61.5 353t188.5 308.5t321.5 218.5t460.5 83h38q22 0 44 -2zM913 498q0 98 -53 135t-127 37q-51 0 -103 -13.5t-98 -31.5q-27 -78 -26 -160q0 -98 45 -169t139 -71q98 0 160.5 72t62.5 201z" />
<glyph unicode="7" d="M276 0q39 152 113 314.5t166 317t194.5 292t198.5 237.5h-616l63 258h994l-54 -221q-78 -66 -185.5 -190.5t-216 -285.5t-202.5 -346.5t-145 -375.5h-310z" />
<glyph unicode="8" d="M190 322q0 61 17.5 117.5t55.5 109.5t97.5 103t143.5 102q-49 47 -83 107.5t-34 146.5q0 80 29.5 159.5t92 143t157 102.5t223.5 39q86 0 159.5 -24.5t127 -68.5t84 -107.5t30.5 -139.5q0 -45 -10 -95t-41 -100.5t-87 -101.5t-148 -96q35 -25 65.5 -53.5t53 -65.5 t35.5 -82t13 -102q0 -92 -35.5 -173t-104 -141.5t-171 -95.5t-233.5 -35q-76 0 -154 17.5t-140.5 59.5t-102.5 109t-40 165zM877 408q0 41 -14.5 72.5t-40 58t-59.5 48t-73 42.5q-63 -31 -103 -65t-63.5 -68.5t-32 -69.5t-8.5 -68q0 -72 50.5 -107.5t121.5 -35.5 q43 0 83 13.5t71 38t49.5 60.5t18.5 81zM668 1026q0 -66 41 -111t98 -79q119 55 159 115.5t40 117.5q0 66 -41 102.5t-113 36.5q-84 0 -134 -53t-50 -129z" />
<glyph unicode="9" d="M195 236q127 2 236.5 17t200.5 54t159.5 104.5t113.5 170.5q-53 -29 -123.5 -42.5t-132.5 -13.5q-76 0 -142.5 23.5t-116.5 72t-78.5 119t-28.5 166.5q0 131 43 233.5t116.5 172t172 105.5t206.5 36q94 0 177 -32.5t143.5 -95t95.5 -156t35 -216.5q0 -180 -61.5 -353 t-188.5 -308t-321.5 -218t-460.5 -83h-38q-22 0 -44 2zM573 928q0 -98 53.5 -135t127.5 -37q51 0 103 13t97 32q27 78 27 160q0 98 -45 168.5t-139 70.5q-98 0 -161 -71.5t-63 -200.5z" />
<glyph unicode=":" horiz-adv-x="516" d="M482 1077q72 0 120 -40t48 -126q0 -47 -17.5 -86t-46.5 -66.5t-65.5 -43t-75.5 -15.5q-72 0 -120 40t-48 126q0 47 17.5 86t46 66.5t65.5 43t76 15.5zM328 350q72 0 120 -40t48 -126q0 -47 -17.5 -86t-46.5 -66.5t-65.5 -43t-75.5 -15.5q-72 0 -120 40t-48 126 q0 47 17.5 86t46 66.5t65.5 43t76 15.5z" />
<glyph unicode=";" horiz-adv-x="516" d="M482 1077q72 0 120 -40t48 -126q0 -47 -17.5 -86t-46.5 -66.5t-65.5 -43t-75.5 -15.5q-72 0 -120 40t-48 126q0 47 17.5 86t46 66.5t65.5 43t76 15.5zM502 311q-6 -178 -89 -337.5t-202 -307.5l-223 60q78 135 131 280.5t63 304.5h320z" />
<glyph unicode="&#x3c;" d="M248 739l971 371l20 -254l-709 -246l582 -268l-129 -227l-790 385z" />
<glyph unicode="=" d="M213 514h963l-62 -256h-962zM322 963h962l-61 -256h-963z" />
<glyph unicode="&#x3e;" d="M1130 485l-970 -370l-21 256l709 245l-582 269l129 225l791 -385z" />
<glyph unicode="?" horiz-adv-x="880" d="M598 834l104 81q43 35 71 65t41 56.5t13 55.5q0 53 -37.5 77.5t-95.5 24.5q-37 0 -78 -7t-79.5 -19.5t-73.5 -27t-62 -28.5l-39 240q80 45 183.5 72.5t208.5 27.5q74 0 141.5 -18.5t118.5 -56.5t81.5 -94t30.5 -130q0 -88 -27.5 -153.5t-70.5 -117t-97 -92.5l-108 -83 q-78 -59 -137 -119t-65 -135h-271q0 63 19.5 116.5t53.5 98.5t79 86t96 80zM457 350q72 0 120 -40t48 -126q0 -47 -17.5 -86t-46.5 -66.5t-65.5 -43t-75.5 -15.5q-72 0 -120 40t-48 126q0 47 17.5 86t46 66.5t65.5 43t76 15.5z" />
<glyph unicode="@" horiz-adv-x="1927" d="M1325 -299q-86 -16 -177 -26.5t-169 -10.5q-180 0 -323.5 49t-244 140.5t-153.5 221.5t-53 290q0 266 91 472.5t242.5 347t346 213t403.5 72.5q141 0 270.5 -39.5t228.5 -121.5t158.5 -207t59.5 -297q0 -137 -34 -271.5t-105.5 -240t-182 -171t-262.5 -65.5 q-53 0 -100 20.5t-78 59.5q-72 -41 -140.5 -60.5t-146.5 -19.5q-162 0 -252 106.5t-90 280.5q0 100 41 209t121 198t200 146.5t279 57.5q123 0 203 -21.5t135 -44.5l-145 -606q-4 -10 -4 -18v-17q0 -35 22.5 -50t57.5 -15q53 0 98 37.5t78 104.5t51 158t18 197 q0 129 -39.5 222.5t-109.5 151.5t-162 86t-198 28q-147 0 -294 -56.5t-262.5 -168t-187.5 -280.5t-72 -392q0 -145 46.5 -241.5t124 -154t181 -82t220.5 -24.5q72 0 160 10t161 25zM1171 322q2 16 7 36l10 50l100 421q-35 8 -84 9q-84 0 -143.5 -35t-99 -89.5t-58 -120 t-18.5 -124.5q0 -92 32.5 -140t110.5 -48q61 0 143 41z" />
<glyph unicode="A" horiz-adv-x="1462" d="M1090 0q-4 80 -9.5 156.5l-11.5 152.5h-532l-86 -152q-45 -77 -86 -157h-334l249 424l223 367l210 326l209 302h284q33 -147 62.5 -326.5t55.5 -366.5t47 -375l40 -351h-321zM995 1108l-169 -272q-83 -135 -160 -277h383l-22 266q-12 142 -32 283z" />
<glyph unicode="B" horiz-adv-x="1347" d="M639 -18q-123 0 -252 10t-233 33l327 1372q117 23 245 31t235 8q123 0 212 -26t145 -69t84 -101t28 -124q0 -45 -9.5 -94t-37 -97t-75.5 -91t-126 -78q92 -41 135 -112t43 -157q0 -98 -39 -189t-125 -161.5t-223 -112.5t-334 -42zM610 621l-88 -369q33 -6 83 -9t93 -3 q61 0 122 9t109 33.5t78.5 67.5t30.5 111q0 29 -11 57.5t-35.5 51t-64.5 37t-96 14.5h-221zM670 860h200q123 0 183.5 53.5t60.5 126.5q0 39 -17.5 67t-46 44t-65.5 23.5t-76 7.5q-43 0 -92 -3t-74 -8z" />
<glyph unicode="C" horiz-adv-x="1306" d="M1257 61q-84 -41 -186 -65.5t-250 -24.5q-127 0 -232.5 42t-180 120t-115.5 189.5t-41 250.5q0 160 56.5 318t166 281.5t268 201.5t365.5 78q98 0 193.5 -22.5t199.5 -79.5l-115 -248q-86 45 -153.5 61.5t-145.5 16.5q-117 0 -210 -47.5t-159.5 -128t-101 -187 t-34.5 -225.5q0 -180 78.5 -262t226.5 -82q98 0 181 20.5t155 53.5z" />
<glyph unicode="D" horiz-adv-x="1470" d="M526 256q23 -2 46.5 -3t64.5 -1q133 0 240.5 41t182.5 117.5t116 188.5t41 251q0 72 -18.5 130t-60.5 100t-108.5 64.5t-161.5 22.5q-61 0 -125 -6zM1544 866q0 -207 -67.5 -370.5t-193.5 -277.5t-306 -175t-408 -61q-86 0 -198.5 10t-216.5 33l329 1370q117 23 224.5 32 t193.5 9q152 0 271.5 -41t202.5 -117t126 -180.5t43 -231.5z" />
<glyph unicode="E" horiz-adv-x="1216" d="M154 0l340 1419h927l-65 -262h-608l-66 -287h537l-64 -258h-537l-81 -348h655l-66 -264h-972z" />
<glyph unicode="F" horiz-adv-x="1177" d="M154 0l340 1419h919l-65 -264h-600l-72 -303h530l-63 -264h-531l-141 -588h-317z" />
<glyph unicode="G" horiz-adv-x="1409" d="M879 246q41 0 73.5 3t59.5 7l118 494h320l-172 -711q-57 -23 -165.5 -44.5t-276.5 -21.5q-143 0 -253 42t-183.5 120t-110.5 188.5t-37 249.5q0 160 56.5 318t167 281.5t274 201.5t376.5 78q98 0 208 -28.5t198 -86.5l-115 -247q-72 45 -152.5 67.5t-158.5 22.5 q-125 0 -222.5 -47.5t-165 -128t-102 -187t-34.5 -225.5q0 -180 75 -263t222 -83z" />
<glyph unicode="H" horiz-adv-x="1462" d="M1317 1419h319l-342 -1419h-319l145 604h-504l-145 -604h-317l340 1419h319l-131 -545h504z" />
<glyph unicode="I" horiz-adv-x="638" d="M494 1419h319l-342 -1419h-317z" />
<glyph unicode="J" horiz-adv-x="1056" d="M993 430q-25 -104 -65.5 -189t-106 -145.5t-162 -92.5t-233.5 -32q-111 0 -210 34t-175 91l141 238q49 -35 107.5 -61.5t138.5 -26.5q57 0 99 13t73 43t52.5 77t37.5 115l221 925h320z" />
<glyph unicode="K" horiz-adv-x="1355" d="M989 0q-29 70 -68.5 149.5t-88 159.5t-103.5 154t-113 131l-145 -594h-317l340 1419h319l-125 -512l301 263q141 126 264 249h379l-369 -345q-183 -171 -386 -333q129 -141 247.5 -323t212.5 -418h-348z" />
<glyph unicode="L" horiz-adv-x="1155" d="M1165 270l-65 -270h-946l340 1419h319l-276 -1149h628z" />
<glyph unicode="M" horiz-adv-x="1798" d="M852 1419q12 -55 32 -156l41 -224l44 -249l41 -235l151 229l162 242l152 222l122 171h283q-14 -141 -37.5 -317t-53.5 -365l-63 -379l-65 -358h-311l91 452q48 243 89 490l-119 -187l-131 -209l-127 -202l-106 -164h-234l-25 156l-31 200l-36 213q-18 108 -35 193 q-80 -248 -144 -490l-120 -452h-309l103 358l117 380l120 366q59 176 112 315h287z" />
<glyph unicode="N" horiz-adv-x="1519" d="M1112 0q-86 242 -191.5 483.5t-228.5 456.5l-225 -940h-313l340 1419h243q47 -72 102 -169l111 -210l115 -234l109 -241l202 854h318l-342 -1419h-240z" />
<glyph unicode="O" horiz-adv-x="1550" d="M1024 1178q-94 0 -175 -49.5t-141.5 -131.5t-94 -188.5t-33.5 -218.5q0 -154 64.5 -249t209.5 -95q94 0 175 49t141.5 131t94 187.5t33.5 220.5q0 154 -64.5 249t-209.5 95zM821 -29q-125 0 -229.5 41t-180 118t-117.5 187.5t-42 249.5q0 160 55 317.5t158.5 283.5 t253 205t338.5 79q125 0 229.5 -41t180 -117.5t117.5 -187.5t42 -250q0 -160 -54 -318.5t-157.5 -284.5t-253.5 -204t-340 -78z" />
<glyph unicode="P" horiz-adv-x="1308" d="M885 1436q129 0 232.5 -28t175 -80t110.5 -128t39 -170q0 -154 -59.5 -260t-164 -172t-246 -94.5t-306.5 -28.5h-80l-115 -475h-317l333 1399q111 20 210.5 28.5t187.5 8.5zM858 1167q-35 0 -59 -2l-49 -4l-99 -418h80q86 0 156.5 13.5t121 44t78 79t27.5 117.5 q0 92 -66.5 131t-189.5 39z" />
<glyph unicode="Q" horiz-adv-x="1548" d="M1249 -383q-162 6 -270.5 32.5t-175 70.5t-95 107.5t-28.5 143.5v15q-197 41 -312.5 190.5t-115.5 390.5q0 160 55 317.5t158.5 283.5t253 205t338.5 79q125 0 229.5 -41t180 -117.5t117.5 -187.5t42 -250q0 -141 -43 -283.5t-126 -262.5t-202.5 -206t-273.5 -116v-6 q0 -45 29.5 -72t80 -41t116 -20.5t136.5 -10.5zM1024 1178q-94 0 -175 -49.5t-141.5 -131.5t-94 -188.5t-33.5 -218.5q0 -154 64.5 -249t209.5 -95q94 0 175 49t141.5 131t94 187.5t33.5 220.5q0 154 -64.5 249t-209.5 95z" />
<glyph unicode="R" horiz-adv-x="1343" d="M893 1436q137 0 239.5 -33t170 -88t100.5 -130t33 -157q0 -68 -15.5 -133.5t-57.5 -124.5t-112.5 -109.5t-181.5 -85.5q57 -106 117.5 -257.5t113.5 -317.5h-342l-95 280q-48 138 -107 238h-160l-125 -518h-317l333 1399q111 20 215.5 28.5t190.5 8.5zM883 1165 q-35 0 -72 -2t-61 -4l-93 -389h109q98 0 165.5 18.5t108.5 49t58.5 70.5t17.5 81q0 35 -10 66.5t-37 56.5t-71.5 39t-114.5 14z" />
<glyph unicode="S" horiz-adv-x="1144" d="M551 238q47 0 94 7t84 25.5t60.5 52t23.5 87.5q0 41 -22.5 70.5t-57.5 54t-78 45t-86 45.5q-55 33 -104 69.5t-84 82.5t-55.5 102.5t-20.5 130.5q0 94 36 175t106.5 140t177 93t249.5 34q66 0 127.5 -11t114.5 -27.5t97 -38t75 -42.5l-133 -235q-51 39 -125 65.5 t-160 26.5q-47 0 -90 -8t-75.5 -27.5t-52 -50.5t-19.5 -76q0 -41 15.5 -68.5t40 -48t56.5 -37.5l70 -34q63 -33 122.5 -70t104.5 -85t72 -109.5t27 -145.5q0 -117 -43 -203t-121 -143t-185.5 -85t-238.5 -28q-86 0 -161 14.5t-135 34t-104 42t-71 40.5l135 244 q25 -16 59.5 -34.5t78.5 -35t93.5 -27.5t102.5 -11z" />
<glyph unicode="T" horiz-adv-x="1216" d="M1513 1419l-65 -268h-416l-276 -1151h-320l277 1151h-416l65 268h1151z" />
<glyph unicode="U" horiz-adv-x="1398" d="M1368 516q-70 -289 -226.5 -417t-414.5 -128q-133 0 -224 32t-148.5 88t-83 135t-25.5 171q0 106 30 228l191 794h319l-200 -839q-20 -74 -21 -150q0 -41 9.5 -73.5t33 -57.5t63.5 -38t99 -13q123 0 186.5 76.5t98.5 218.5l209 876h319z" />
<glyph unicode="V" horiz-adv-x="1409" d="M549 0q-33 174 -62.5 360.5l-56.5 370.5t-47.5 359.5t-34.5 328.5h342q6 -117 15.5 -251t21.5 -270l26 -270q13 -134 27 -251l136 233l148 264l147 277l135 268h340l-170 -317l-198 -352l-223 -372l-247 -378h-299z" />
<glyph unicode="W" horiz-adv-x="1916" d="M1366 1268q4 -84 11 -190.5t16.5 -220.5l19.5 -226.5t21 -208.5q53 104 108 225l111 250l109 262l104 260h338q-160 -389 -326 -740t-356 -679h-299l-29.5 216t-25 203.5t-20.5 203l-18 213.5l-230 -425q-114 -208 -243 -411h-299q-16 190 -23 376.5t-7 379.5 q0 166 6 330.5t16 332.5h322l-20 -353q-9 -173 -9 -359v-142q0 -72 4 -143l121 213l125 225l117 218q55 105 94 190h262z" />
<glyph unicode="X" horiz-adv-x="1370" d="M997 0l-52 156l-45 126q-22 58 -44 110l-49 110l-412 -502h-364l645 772l-289 647h352l170 -438l178 224l158 214h350l-126 -173l-137 -178l-142 -174l-139 -161l81 -182q38 -86 72.5 -173t67.5 -179l67 -199h-342z" />
<glyph unicode="Y" horiz-adv-x="1335" d="M846 836l113 146l106 141l101 144l104 152h352l-166 -229l-160 -212l-163 -206l-179 -211l-135 -561h-319l135 561q-86 217 -155.5 424t-131.5 434h340q33 -147 72 -288t86 -295z" />
<glyph unicode="Z" horiz-adv-x="1306" d="M1458 1198q-82 -70 -196 -177l-240 -234l-250 -261q-125 -135 -227 -258h712l-65 -268h-1100l47 190q82 109 193 237l230 257l241 250l223 217h-627l66 268h1046z" />
<glyph unicode="[" horiz-adv-x="763" d="M537 1604h555l-60 -244h-264l-358 -1495h264l-60 -244h-553z" />
<glyph unicode="\" horiz-adv-x="831" d="M307 1604h293l211 -1983h-293z" />
<glyph unicode="]" horiz-adv-x="763" d="M475 -379h-553l60 244h262l358 1495h-264l59 244h555z" />
<glyph unicode="^" d="M1270 711l-266 -113l-160 506l-414 -498l-217 133l575 688h242z" />
<glyph unicode="_" horiz-adv-x="1030" d="M-4 -125h1024l-59 -254h-1022z" />
<glyph unicode="`" horiz-adv-x="505" d="M504 1636l276 -338l-131 -118l-334 295z" />
<glyph unicode="a" horiz-adv-x="1204" d="M1153 465q-20 -82 -20 -164q0 -35 4 -71q12 -118 47 -210l-273 -38l-22 47t-21 51q-57 -47 -126.5 -78t-155.5 -31q-102 0 -175 36t-119 96.5t-66.5 141.5t-20.5 173q0 141 50 266t139 218t210 146.5t262 53.5q18 0 64.5 -2t106 -9.5t125 -23.5t124.5 -45zM940 842 q-27 4 -48.5 6t-51.5 2q-70 0 -130.5 -35t-105.5 -91t-70.5 -130t-25.5 -154q0 -98 32.5 -155.5t121.5 -57.5q47 0 84.5 18.5t80.5 61.5q4 51 13.5 107.5t19.5 103.5z" />
<glyph unicode="b" horiz-adv-x="1177" d="M858 1100q98 0 170 -35t119 -94.5t69.5 -139t22.5 -172.5q0 -141 -52 -267t-142.5 -219t-213 -147.5t-266.5 -54.5q-18 0 -64 1t-105.5 9.5t-126 25t-126.5 44.5l355 1489l317 49l-127 -528q41 18 82 28.5t88 10.5zM592 223q72 0 135.5 35t109.5 93.5t72.5 132 t26.5 153.5q0 98 -33 153.5t-121 55.5q-29 0 -74.5 -10.5t-82.5 -42.5l-136 -562q12 -2 21.5 -4t20 -3t24.5 -1h37z" />
<glyph unicode="c" horiz-adv-x="983" d="M205 430q0 139 45 262t129 215t203.5 145.5t267.5 53.5q92 0 164.5 -17.5t132.5 -46.5l-105 -237q-41 16 -85 29.5t-107 13.5q-154 0 -242 -103.5t-88 -281.5q0 -104 45 -169t166 -65q59 0 114.5 12.5t98.5 30.5l23 -243q-57 -23 -126 -40.5t-167 -17.5q-127 0 -215 37 t-145.5 99.5t-83 146.5t-25.5 176z" />
<glyph unicode="d" horiz-adv-x="1208" d="M588 -29q-102 0 -175 35t-119 95.5t-67.5 141.5t-21.5 173q0 139 50 263t138 216t209 145.5t264 53.5q37 0 69 -4.5t64 -12.5l111 463l317 49l-270 -1124q-20 -82 -20 -164q0 -35 4 -71q12 -118 47 -210l-273 -38l-22 47t-21 51q-57 -47 -127.5 -78t-156.5 -31zM940 834 q-12 2 -21.5 4t-18.5 3t-23 1h-37q-72 0 -133.5 -34t-105.5 -91.5t-68.5 -130t-24.5 -148.5q0 -98 33.5 -154.5t122.5 -56.5q47 0 85.5 18.5t81.5 61.5q4 51 13.5 107.5t19.5 103.5z" />
<glyph unicode="e" horiz-adv-x="1085" d="M205 422q0 131 46 254t130 218t204 153.5t265 58.5q72 0 133 -20.5t107.5 -59.5t72 -95.5t25.5 -127.5q0 -115 -51.5 -195t-142.5 -130t-216 -72.5t-272 -22.5q14 -86 62 -122t153 -36q66 0 133.5 11.5t126.5 33.5l23 -239q-57 -23 -146.5 -41.5t-193.5 -18.5 q-127 0 -214.5 36t-141.5 97.5t-78.5 143.5t-24.5 174zM801 864q-104 0 -183 -74.5t-104 -197.5q127 4 205 21.5t121 42t57 53t14 57.5q1 98 -110 98z" />
<glyph unicode="f" horiz-adv-x="897" d="M981 1589q92 0 160.5 -19.5t103.5 -35.5l-102 -240q-37 18 -85 27.5t-89 9.5q-113 0 -167 -57t-75 -144l-12 -53h360l-61 -250h-359l-125 -522q-70 -293 -151.5 -455.5t-179.5 -236.5l-273 39q53 49 98.5 120.5t81 151.5t61.5 163t42 155l213 893q51 217 184 335.5 t375 118.5z" />
<glyph unicode="g" horiz-adv-x="1161" d="M1073 135q-31 -133 -81 -230.5t-124.5 -162t-179 -96t-244.5 -31.5q-129 0 -217 23.5t-159 58.5l102 242q63 -29 132 -49.5t169 -20.5q131 0 197.5 58.5t87.5 150.5l8 39q-41 -20 -87 -32.5t-97 -12.5q-96 0 -166 29.5t-114 83t-65.5 126t-21.5 158.5q0 156 57.5 275.5 t152.5 199.5t219 121t259 41q98 0 194.5 -20.5t188.5 -63.5zM938 842q-35 8 -86 8q-78 0 -139.5 -27.5t-105.5 -75t-67.5 -114t-23.5 -141.5q0 -37 6 -69t22.5 -55.5t45 -38t72.5 -14.5q29 0 76.5 10.5t86.5 47.5z" />
<glyph unicode="h" horiz-adv-x="1157" d="M870 1096q88 0 151.5 -26t104.5 -72t61.5 -109.5t20.5 -136.5q0 -86 -20 -170l-139 -582h-306l136 569q8 35 15 74t7 74q0 53 -27.5 91t-105.5 38q-33 0 -62.5 -4t-58.5 -11l-198 -831h-306l369 1540l317 49l-124 -514q41 8 82.5 14.5t82.5 6.5z" />
<glyph unicode="i" horiz-adv-x="579" d="M446 0h-303l256 1077h306zM594 1208q-63 0 -114.5 38t-51.5 116q0 43 17.5 81t46 65.5t66.5 44t81 16.5q63 0 114.5 -38t51.5 -116q0 -43 -17.5 -81t-46 -65.5t-66.5 -44t-81 -16.5z" />
<glyph unicode="j" horiz-adv-x="593" d="M31 -379q-57 0 -113.5 11.5t-101.5 27.5l78 242q29 -10 56 -16.5t62 -6.5q72 0 111 43t55 125l248 1030h305l-250 -1038q-49 -213 -153 -315.5t-297 -102.5zM621 1208q-63 0 -114.5 38t-51.5 116q0 43 17 81t46 65.5t67 44t81 16.5q63 0 114 -38t51 -116q0 -43 -17 -81 t-46 -65.5t-66.5 -44t-80.5 -16.5z" />
<glyph unicode="k" horiz-adv-x="1148" d="M612 688q123 98 231.5 200.5t186.5 188.5h344q-115 -127 -238.5 -248.5t-283.5 -259.5q43 -53 87 -122.5t84 -145.5t73.5 -153.5t56.5 -147.5h-340q-18 53 -46 116.5t-61.5 126t-70.5 122t-74 106.5l-115 -471h-303l369 1540l317 49z" />
<glyph unicode="l" horiz-adv-x="645" d="M590 -20q-145 0 -228 37.5t-119 103.5q-35 64 -35 146q0 85 23 186l261 1087l317 49l-285 -1179q-8 -37 -9 -68t11.5 -54.5t42 -37.5t82.5 -19z" />
<glyph unicode="m" horiz-adv-x="1732" d="M391 1028q35 10 75 23.5t90 24.5t112.5 18.5t144.5 7.5q98 0 162.5 -24.5t118.5 -73.5q76 43 150.5 70.5t174.5 27.5q96 0 165 -25.5t114 -74t65.5 -115t20.5 -146.5q0 -37 -5 -77.5t-16 -81.5l-139 -582h-305l135 569l13 65q7 36 8 71q0 57 -27 99t-105 42 q-43 0 -81.5 -15.5t-69.5 -31.5q4 -16 4 -31v-27q0 -37 -5 -77.5t-15 -81.5l-140 -582h-305l135 569l14 65q7 36 7 71q0 57 -26.5 99t-104.5 42q-33 0 -55.5 -3t-53.5 -9l-198 -834h-306z" />
<glyph unicode="n" horiz-adv-x="1161" d="M391 1028l77 24q42 13 94 24t116.5 18.5t146.5 7.5q242 0 332 -139q54 -84 54 -206q0 -80 -23 -175l-139 -582h-306l136 569q12 53 19 104q3 23 3 44q0 24 -4 44q-8 38 -38 61.5t-91 23.5q-59 0 -121 -12l-198 -834h-306z" />
<glyph unicode="o" horiz-adv-x="1175" d="M631 -29q-109 0 -189 33t-132 92.5t-78.5 140t-26.5 179.5q0 123 40 245.5t117.5 221t190.5 161t258 62.5q106 0 187 -33t133.5 -92t79 -140t26.5 -179q0 -123 -39 -246t-114.5 -221.5t-189 -161t-263.5 -62.5zM782 848q-68 0 -119 -39t-85.5 -98.5t-52 -130 t-17.5 -134.5q0 -104 32.5 -160.5t118.5 -56.5q68 0 119 39t86 98.5t52.5 130t17.5 134.5q0 104 -33 160.5t-119 56.5z" />
<glyph unicode="p" horiz-adv-x="1183" d="M502 238q35 -8 86 -9q80 0 145.5 30t111.5 83t71.5 128t25.5 165q0 88 -39 149.5t-135 61.5q-66 0 -123 -12zM1245 657q0 -150 -49 -273.5t-136 -213.5t-209 -140t-265 -50q-70 0 -140 12l-92 -371h-303l340 1417q82 25 187.5 44.5t228.5 19.5q115 0 197.5 -35t136 -95.5 t79 -141.5t25.5 -173z" />
<glyph unicode="q" horiz-adv-x="1173" d="M205 418q0 160 54 286.5t149.5 215t222.5 135.5t274 47q190 0 391 -80l-333 -1401h-306l95 397q-90 -39 -185 -38q-78 0 -144.5 29.5t-114.5 86t-75.5 138.5t-27.5 184zM950 842q-20 4 -42.5 6t-45.5 2q-84 0 -149.5 -33t-111.5 -89t-69.5 -131t-23.5 -157 q0 -117 39 -162t106 -45q39 0 77 11.5t85 40.5z" />
<glyph unicode="r" horiz-adv-x="872" d="M967 815l-81 20q-40 9 -118 9q-29 0 -63.5 -5t-57.5 -12l-198 -827h-306l246 1020q88 29 197.5 54.5t247.5 25.5q51 0 113.5 -9.5t109.5 -29.5z" />
<glyph unicode="s" horiz-adv-x="989" d="M494 217q104 0 143 29.5t39 64.5q0 23 -7 39.5t-23.5 30.5t-45.5 29.5t-74 35.5q-51 23 -96 48.5t-79 61.5t-53 82t-19 110q0 166 121.5 262t355.5 96q111 0 196.5 -24.5t139.5 -53.5l-105 -227q-43 23 -110.5 43t-133.5 20q-29 0 -56.5 -3t-51 -13t-37.5 -28.5 t-14 -49.5q0 -41 31.5 -61.5t89.5 -49.5q80 -39 133 -71.5t84.5 -69.5t46 -84t14.5 -110q0 -66 -27.5 -129.5t-87 -112.5t-151.5 -80t-221 -31q-80 0 -144.5 10.5t-114 26t-83 31.5t-52.5 27l105 233q35 -20 109 -51t178 -31z" />
<glyph unicode="t" horiz-adv-x="851" d="M436 1346l318 49l-78 -318h340l-62 -250h-338l-90 -376q-12 -47 -15 -89q-1 -8 -1 -14q0 -32 11 -56q13 -30 46 -46.5t90 -16.5q49 0 95.5 9.5t93.5 25.5l22 -233q-61 -23 -132.5 -39.5t-170.5 -16.5q-141 0 -219 42t-110 115q-29 65 -30 146q0 10 1 21q4 94 29 199z" />
<glyph unicode="u" horiz-adv-x="1189" d="M1272 1077l-146 -612q-20 -82 -20 -164q0 -35 4 -71q12 -118 47 -210l-272 -38q-23 45 -43 100q-57 -45 -129 -76t-160 -31q-121 0 -195.5 44t-111.5 117t-40 167q0 10 -1 21q0 84 22 172l140 581h305l-137 -577q-10 -45 -18 -92q-4 -25 -4 -49q0 -20 3 -38 q6 -40 31.5 -66t81.5 -26q47 0 87 17.5t85 60.5q4 51 13 107.5t20 103.5l133 559h305z" />
<glyph unicode="v" horiz-adv-x="1118" d="M412 0q-53 205 -96.5 478.5t-59.5 598.5h315q2 -80 6.5 -175t10.5 -191.5t14 -187.5t19 -165q45 61 101 151.5t109.5 189t98.5 197.5t69 181h324q-53 -145 -132 -298.5t-169 -297t-183.5 -268.5t-172.5 -213h-254z" />
<glyph unicode="w" horiz-adv-x="1671" d="M987 631q-39 -84 -87 -171l-98 -170l-97 -158l-84 -132h-238q-16 86 -33.5 205t-34 259t-30 297t-19.5 316h299q0 -74 1 -160t4 -178t9.5 -188t16.5 -191q51 86 101 180l97 186q46 93 86 183t70 168h254q0 -147 5 -329.5t26 -387.5q55 92 102 189.5t87 192t72 180.5 l56 155h324q-41 -102 -97.5 -230t-130 -269.5t-165.5 -289t-205 -288.5h-238q-25 168 -37 321.5t-16 309.5z" />
<glyph unicode="x" horiz-adv-x="1124" d="M575 1077l156 -336l132 168q62 82 120 168h305q-86 -123 -188.5 -255t-237.5 -275q82 -154 139.5 -284t102.5 -263h-301q-37 100 -74 184t-72 156l-297 -340h-319l489 549l-264 528h309z" />
<glyph unicode="y" horiz-adv-x="1089" d="M1294 1077q-57 -156 -115.5 -291t-122 -256.5t-131 -232.5t-143.5 -219l-114 -162q-59 -82 -132 -147.5t-162 -106.5t-206 -41q-72 0 -123 13.5t-96 35.5l92 240q41 -16 73.5 -25.5t80.5 -9.5q72 0 136 46t107 124q-53 205 -97 459t-60 573h313q2 -80 8 -176t14.5 -193.5 t18.5 -189.5t22 -166q98 147 173 327.5t141 397.5h323z" />
<glyph unicode="z" horiz-adv-x="1077" d="M1192 874l-123 -111l-164 -156l-180 -178l-172 -179h500l-62 -250h-868l43 178q59 74 136 160l160 174l166 169l154 146h-438l62 250h835z" />
<glyph unicode="{" horiz-adv-x="759" d="M223 733q63 0 108.5 14.5t76 40t48 60.5t27.5 78l74 309q23 92 61.5 161.5t102 116t157 69t222.5 22.5h41l-60 -244h-51q-49 0 -83 -11.5t-56.5 -33t-35.5 -52t-21 -71.5l-64 -272q-12 -53 -28.5 -98.5t-45 -84.5t-72.5 -69.5t-112 -55.5q72 -33 98.5 -79t26.5 -105 q0 -47 -16 -123l-64 -272q-12 -49 -12 -82q0 -47 28.5 -66.5t98.5 -19.5h51l-59 -244h-41q-180 0 -275.5 56.5t-95.5 205.5q0 61 22 162l60 254q20 98 -16.5 145.5t-153.5 47.5z" />
<glyph unicode="|" horiz-adv-x="622" d="M537 1604h290l-477 -1983h-289z" />
<glyph unicode="}" horiz-adv-x="759" d="M813 492q-63 0 -108.5 -14.5t-76 -40t-48 -60.5t-27.5 -78l-74 -309q-23 -92 -61.5 -162t-102 -116t-156.5 -68.5t-222 -22.5h-41l59 244h51q51 0 84 10t54.5 31.5t35 53.5t23.5 73l63 272q12 53 28.5 98.5t45.5 84t73 69.5t111 55q-72 33 -98.5 79t-26.5 106 q0 47 17 123l63 272q12 49 13 82q0 47 -29 66.5t-98 19.5h-52l60 244h41q180 0 275 -56.5t95 -206.5q0 -61 -22 -161l-60 -254q-20 -98 17 -145.5t153 -47.5z" />
<glyph unicode="~" d="M877 401q-68 0 -118 25t-91 53l-79 53q-38 25 -83 25q-18 0 -33.5 -4t-32 -19.5t-35 -45t-43.5 -80.5l-194 57q23 70 56.5 135.5t81.5 115.5t110.5 79.5t142.5 29.5q68 0 118 -24.5t91 -52.5l79 -54q38 -25 83 -24q18 0 33.5 4t32 19.5t35 45t42.5 80.5l195 -57 q-29 -78 -64 -143.5t-81 -113.5t-106 -76t-140 -28z" />
<glyph unicode="&#xa2;" d="M1059 121q-59 -25 -123 -40t-125 -22l-68 -282h-290l75 315q-104 43 -166.5 135t-62.5 252q0 131 37 238.5t101.5 189.5t150.5 137.5t184 79.5l72 295h291l-70 -286q90 -18 170 -64l-102 -235q-49 29 -100.5 41t-98.5 12q-70 0 -128 -26.5t-101 -77t-67 -125t-24 -169.5 q0 -102 52.5 -140t126.5 -38q59 0 124.5 16.5t118.5 37.5z" />
<glyph unicode="&#xa3;" d="M766 807h360l-59 -250h-360q-18 -72 -45 -152.5t-54 -148.5h555l-61 -256h-889q74 166 120 303t77 254h-179l60 250h178l51 197q33 123 89.5 207.5t128 137t154.5 75t173 22.5q92 0 171 -20.5t144 -55.5l-123 -225q-104 47 -194 47q-43 0 -83 -10.5t-74 -38t-61.5 -76.5 t-45.5 -127z" />
<glyph unicode="&#xa5;" d="M788 883l197 259q92 124 191 277h331q-115 -172 -237 -332l-262 -329h206l-47 -195h-299l-32 -141h299l-48 -195h-299l-55 -227h-319l55 227h-297l47 195h297l33 141h-297l47 195h236l-65 171l-60 173q-29 86 -52.5 167t-40.5 150h320q14 -74 30.5 -138t35 -127.5 l39.5 -130.5z" />
<glyph unicode="&#xa9;" horiz-adv-x="1630" d="M1671 711q0 -176 -58.5 -313.5t-156.5 -232.5t-227 -145.5t-271 -50.5q-141 0 -270 50.5t-227.5 145.5t-156.5 232.5t-58 313.5q0 174 58 312t156.5 233.5t227.5 145.5t270 50t270.5 -50t227.5 -145.5t156.5 -233.5t58.5 -312zM1462 711q0 123 -36.5 223t-103.5 172 t-160 110.5t-204 38.5t-203.5 -38.5t-159.5 -110.5t-103.5 -172t-36.5 -223t36.5 -223.5t103.5 -172t160 -110.5t203 -39q111 0 204 39t160 110.5t103.5 172t36.5 223.5zM991 328q-184 0 -279.5 100t-95.5 287q0 186 101.5 285.5t267.5 99.5q98 0 158.5 -26.5t83.5 -39.5 l-66 -180q-29 16 -64.5 27.5t-92.5 11.5q-68 0 -109 -43t-41 -125q0 -37 6 -70.5t22.5 -59.5t45 -42t76.5 -16q61 0 102 14l74 27l57 -187q-27 -14 -90.5 -38.5t-155.5 -24.5z" />
<glyph unicode="&#xad;" horiz-adv-x="702" d="M217 750h594l-68 -277h-593z" />
<glyph unicode="&#xae;" horiz-adv-x="1630" d="M1671 711q0 -176 -58.5 -313.5t-156.5 -232.5t-227 -145.5t-271 -50.5q-141 0 -270 50.5t-227.5 145.5t-156.5 232.5t-58 313.5q0 174 58 312t156.5 233.5t227.5 145.5t270 50t270.5 -50t227.5 -145.5t156.5 -233.5t58.5 -312zM1462 711q0 123 -36.5 223t-103.5 172 t-160 110.5t-204 38.5t-203.5 -38.5t-159.5 -110.5t-103.5 -172t-36.5 -223t36.5 -223.5t103.5 -172t160 -110.5t203 -39q111 0 204 39t160 110.5t103.5 172t36.5 223.5zM1083 362l-59 137q-25 58 -55 105h-82v-242h-199v701q70 16 130.5 23.5t105.5 7.5q330 0 329 -248 q0 -127 -110 -187q23 -35 40 -66l35 -66q17 -34 34 -73l40 -92h-209zM887 764h37q66 0 98.5 17.5t32.5 66.5q0 41 -29 57.5t-84 16.5q-14 0 -29.5 -1t-25.5 -3v-154z" />
<glyph unicode="&#xb4;" horiz-adv-x="585" d="M848 1458l-363 -278l-123 127l328 329z" />
<glyph unicode="&#x2000;" horiz-adv-x="817" />
<glyph unicode="&#x2001;" horiz-adv-x="1636" />
<glyph unicode="&#x2002;" horiz-adv-x="817" />
<glyph unicode="&#x2003;" horiz-adv-x="1636" />
<glyph unicode="&#x2004;" horiz-adv-x="544" />
<glyph unicode="&#x2005;" horiz-adv-x="407" />
<glyph unicode="&#x2006;" horiz-adv-x="272" />
<glyph unicode="&#x2007;" horiz-adv-x="272" />
<glyph unicode="&#x2008;" horiz-adv-x="202" />
<glyph unicode="&#x2009;" horiz-adv-x="325" />
<glyph unicode="&#x200a;" horiz-adv-x="90" />
<glyph unicode="&#x2010;" horiz-adv-x="702" d="M217 750h594l-68 -277h-593z" />
<glyph unicode="&#x2011;" horiz-adv-x="702" d="M217 750h594l-68 -277h-593z" />
<glyph unicode="&#x2012;" horiz-adv-x="702" d="M217 750h594l-68 -277h-593z" />
<glyph unicode="&#x2013;" horiz-adv-x="1040" d="M180 739h1024l-59 -254h-1022z" />
<glyph unicode="&#x2014;" horiz-adv-x="2064" d="M180 739h2048l-59 -254h-2046z" />
<glyph unicode="&#x2018;" horiz-adv-x="485" d="M266 1014q2 29 7.5 59.5t9.5 44.5q33 137 111.5 261t170.5 210l189 -71q-72 -111 -123 -237t-68 -267h-297z" />
<glyph unicode="&#x2019;" horiz-adv-x="485" d="M727 1571q-2 -29 -7 -59.5t-9 -45.5q-33 -137 -112 -261t-171 -210l-182 76q72 111 120 237t64 263h297z" />
<glyph unicode="&#x201c;" horiz-adv-x="927" d="M266 1014q2 29 7.5 59.5t9.5 44.5q33 137 111.5 261t170.5 210l189 -71q-72 -111 -123 -237t-68 -267h-297zM710 1014q2 29 7.5 59.5t9.5 44.5q33 137 111.5 261t170.5 210l189 -71q-72 -111 -123 -237t-68 -267h-297z" />
<glyph unicode="&#x201d;" horiz-adv-x="927" d="M727 1571q-2 -29 -7 -59.5t-9 -45.5q-33 -137 -112 -261t-171 -210l-182 76q72 111 120 237t64 263h297zM1169 1571q-2 -29 -7 -59.5t-9 -45.5q-33 -137 -112 -261t-171 -210l-182 76q72 111 120 237t64 263h297z" />
<glyph unicode="&#x2022;" horiz-adv-x="794" d="M836 723q0 -59 -20.5 -111.5t-59.5 -92.5t-93.5 -63.5t-121.5 -23.5q-68 0 -122 23.5t-93 63.5t-59.5 92.5t-20.5 111.5q0 57 20.5 110.5t59.5 93.5t93 63.5t122 23.5t122 -23.5t93 -63.5t59.5 -93.5t20.5 -110.5z" />
<glyph unicode="&#x2026;" horiz-adv-x="1937" d="M328 350q72 0 120 -40t48 -126q0 -47 -17.5 -86t-46.5 -66.5t-65.5 -43t-75.5 -15.5q-72 0 -120 40t-48 126q0 47 17.5 86t46 66.5t65.5 43t76 15.5zM1039 350q72 0 120 -40t48 -126q0 -47 -17.5 -86t-46.5 -66.5t-65.5 -43t-75.5 -15.5q-72 0 -120 40t-48 126 q0 47 17.5 86t46 66.5t65.5 43t76 15.5zM1749 350q72 0 120 -40t48 -126q0 -47 -17.5 -86t-46.5 -66.5t-65.5 -43t-75.5 -15.5q-72 0 -120 40t-48 126q0 47 17.5 86t46 66.5t65.5 43t76 15.5z" />
<glyph unicode="&#x202f;" horiz-adv-x="325" />
<glyph unicode="&#x205f;" horiz-adv-x="407" />
<glyph unicode="&#x20ac;" d="M643 446q10 -127 73.5 -174t160.5 -47q61 0 131.5 14.5t142.5 36.5l12 -239q-86 -31 -170 -48.5t-170 -17.5q-96 0 -181 26t-150.5 82t-105.5 147t-44 220h-168l47 203h131q4 35 11.5 68l15.5 65h-129l49 203h139q45 104 107.5 189.5t148.5 145.5t200 93t261 33 q135 0 277 -47l-121 -238q-102 35 -201 35q-143 0 -227 -56.5t-138 -154.5h482l-88 -203h-463q-14 -66 -25 -133h430l-86 -203h-352z" />
<glyph unicode="&#x2122;" horiz-adv-x="1748" d="M905 1419v-211h-209v-510h-241v510h-209v211h659zM1804 1419q20 -121 35.5 -294t32.5 -427h-236l-8 383l-121 -307h-161l-121 305q0 -66 -1 -130t-2 -117.5t-2 -90t-1 -43.5h-234q14 254 30.5 427t33.5 294h217q43 -92 82 -187l79 -188l83 195l75 180h219z" />
<glyph unicode="&#xe000;" horiz-adv-x="1075" d="M0 1075h1075v-1075h-1075v1075z" />
<glyph unicode="&#xf001;" horiz-adv-x="1437" d="M1305 0h-304l256 1077h306zM1452 1208q-63 0 -114.5 38t-51.5 116q0 43 17.5 81t46 65.5t66.5 44t81 16.5q63 0 114.5 -38t51.5 -116q0 -43 -17.5 -81t-46 -65.5t-66.5 -44t-81 -16.5zM981 1589q92 0 149.5 -14t92.5 -31l-109 -237q-37 10 -70.5 17t-74.5 7 q-113 0 -167 -57t-75 -144l-12 -53h360l-61 -250h-359l-125 -522q-70 -293 -151.5 -455.5t-179.5 -236.5l-273 39q53 49 98.5 120.5t81 151.5t61.5 163t42 155l213 893q51 217 184 335.5t375 118.5z" />
<glyph unicode="&#xf002;" horiz-adv-x="1462" d="M1407 -20q-145 0 -228 37.5t-119 103t-35 150.5t24 182l260 1087l317 49l-285 -1179q-8 -37 -9 -68t11.5 -54.5t42 -37.5t82.5 -19zM981 1589q92 0 149.5 -14t92.5 -31l-109 -237q-37 10 -70.5 17t-74.5 7q-113 0 -167 -57t-75 -144l-12 -53h360l-61 -250h-359l-125 -522 q-70 -293 -151.5 -455.5t-179.5 -236.5l-273 39q53 49 98.5 120.5t81 151.5t61.5 163t42 155l213 893q51 217 184 335.5t375 118.5z" />
<glyph unicode="&#xfb01;" horiz-adv-x="1437" d="M1305 0h-304l256 1077h306zM1452 1208q-63 0 -114.5 38t-51.5 116q0 43 17.5 81t46 65.5t66.5 44t81 16.5q63 0 114.5 -38t51.5 -116q0 -43 -17.5 -81t-46 -65.5t-66.5 -44t-81 -16.5zM981 1589q92 0 149.5 -14t92.5 -31l-109 -237q-37 10 -70.5 17t-74.5 7 q-113 0 -167 -57t-75 -144l-12 -53h360l-61 -250h-359l-125 -522q-70 -293 -151.5 -455.5t-179.5 -236.5l-273 39q53 49 98.5 120.5t81 151.5t61.5 163t42 155l213 893q51 217 184 335.5t375 118.5z" />
<glyph unicode="&#xfb02;" horiz-adv-x="1462" d="M1407 -20q-145 0 -228 37.5t-119 103t-35 150.5t24 182l260 1087l317 49l-285 -1179q-8 -37 -9 -68t11.5 -54.5t42 -37.5t82.5 -19zM981 1589q92 0 149.5 -14t92.5 -31l-109 -237q-37 10 -70.5 17t-74.5 7q-113 0 -167 -57t-75 -144l-12 -53h360l-61 -250h-359l-125 -522 q-70 -293 -151.5 -455.5t-179.5 -236.5l-273 39q53 49 98.5 120.5t81 151.5t61.5 163t42 155l213 893q51 217 184 335.5t375 118.5z" />
<glyph unicode="&#xfb03;" horiz-adv-x="2293" d="M977 1589q92 0 160.5 -19.5t103.5 -35.5l-102 -240q-37 18 -85 27.5t-89 9.5q-113 0 -167 -57t-75 -144l-12 -53h360l-61 -250h-359l-125 -522q-70 -293 -151.5 -455.5t-179.5 -236.5l-273 39q53 49 98.5 120.5t81 151.5t61.5 163t42 155l213 893q51 217 184 335.5 t375 118.5zM2161 0h-304l256 1077h306zM2308 1208q-63 0 -114.5 38t-51.5 116q0 43 17.5 81t46 65.5t66.5 44t81 16.5q63 0 114.5 -38t51.5 -116q0 -43 -17.5 -81t-46 -65.5t-66.5 -44t-81 -16.5zM1837 1589q92 0 149.5 -14t92.5 -31l-109 -237q-37 10 -70.5 17t-74.5 7 q-113 0 -167 -57t-75 -144l-12 -53h360l-61 -250h-359l-125 -522q-70 -293 -151.5 -455.5t-179.5 -236.5l-273 39q53 49 98.5 120.5t81 151.5t61.5 163t42 155l213 893q51 217 184 335.5t375 118.5z" />
<glyph unicode="&#xfb04;" horiz-adv-x="2361" d="M977 1589q92 0 160.5 -19.5t103.5 -35.5l-102 -240q-37 18 -85 27.5t-89 9.5q-113 0 -167 -57t-75 -144l-12 -53h360l-61 -250h-359l-125 -522q-70 -293 -151.5 -455.5t-179.5 -236.5l-273 39q53 49 98.5 120.5t81 151.5t61.5 163t42 155l213 893q51 217 184 335.5 t375 118.5zM2265 -20q-145 0 -228 37.5t-119 103t-35 150.5t24 182l260 1087l317 49l-285 -1179q-8 -37 -9 -68t11.5 -54.5t42 -37.5t82.5 -19zM1839 1589q92 0 149.5 -14t92.5 -31l-109 -237q-37 10 -70.5 17t-74.5 7q-113 0 -167 -57t-75 -144l-12 -53h360l-61 -250h-359 l-125 -522q-70 -293 -151.5 -455.5t-179.5 -236.5l-273 39q53 49 98.5 120.5t81 151.5t61.5 163t42 155l213 893q51 217 184 335.5t375 118.5z" />
</font>
</defs>
</svg>
