<?xml version="1.0" standalone="no"?>
<!DOCTYPE svg PUBLIC "-//W3C//DTD SVG 1.1//EN" "http://www.w3.org/Graphics/SVG/1.1/DTD/svg11.dtd" >
<svg xmlns="http://www.w3.org/2000/svg">
<metadata>
This is a custom SVG webfont generated by Font Squirrel.
Copyright   : Copyright 2010 Canonical Ltd  Licensed under the Ubuntu Font Licence 10
Designer    : Dalton Maag Ltd
Foundry     : Dalton Maag Ltd
Foundry URL : httpwwwdaltonmaagcom
</metadata>
<defs>
<font id="webfontthRLUYUD" horiz-adv-x="1155" >
<font-face units-per-em="2048" ascent="1638" descent="-410" />
<missing-glyph horiz-adv-x="473" />
<glyph unicode=" "  horiz-adv-x="473" />
<glyph unicode="&#x09;" horiz-adv-x="473" />
<glyph unicode="&#xa0;" horiz-adv-x="473" />
<glyph unicode="!" horiz-adv-x="512" d="M692 1419l-92 -387q-12 -49 -33.5 -128t-47 -163t-53.5 -164.5t-50 -134.5h-117q16 139 37.5 279.5t62.5 312.5l93 385h200zM272 -27q-57 0 -89.5 31t-32.5 90q0 74 44 114t101 40t91 -32t34 -93q0 -35 -13.5 -62.5t-34 -47t-47 -30t-53.5 -10.5z" />
<glyph unicode="&#x22;" horiz-adv-x="839" d="M713 1556l-25 -102q-25 -100 -62.5 -212t-82.5 -216h-111q8 111 22.5 218.5t39.5 211.5l24 100h195zM1067 1556l-25 -102q-25 -100 -62.5 -212t-82.5 -216h-111q8 111 22.5 218.5t39.5 211.5l24 100h195z" />
<glyph unicode="#" horiz-adv-x="1339" d="M823 1044h322l160 375h172l-160 -375h172l-37 -151h-199l-159 -367h270l-37 -151h-297l-160 -375h-172l158 375h-319l-160 -375h-172l157 375h-176l37 151h205l158 367h-275l37 151h301l162 375h172zM600 526h322l159 367h-321z" />
<glyph unicode="$" d="M567 197q59 0 118.5 11t107 37.5t76 70.5t28.5 110q0 45 -17.5 78t-49 59.5t-75.5 47.5l-96 46q-45 20 -89 47t-78.5 65t-56 90t-21.5 126q0 147 99 246.5t296 124.5l55 233h166l-55 -229q88 -8 158.5 -36t107.5 -52l-86 -142q-35 25 -101.5 47.5t-164.5 22.5 q-59 0 -111.5 -11t-92.5 -36t-62.5 -62.5t-22.5 -89.5q0 -84 51 -129t156 -94q55 -25 106.5 -53.5t89 -67.5t60 -91t22.5 -124q0 -90 -30.5 -159.5t-88 -119.5t-136 -81t-173.5 -41l-61 -264h-166l64 266q-53 2 -102.5 12.5t-92.5 24.5t-76 29.5t-51 27.5l88 146 q37 -23 112.5 -54.5t194.5 -31.5z" />
<glyph unicode="%" horiz-adv-x="1712" d="M551 0h-195l1125 1419h194zM324 975q0 86 27.5 171t77.5 152.5t124 109.5t166 42q123 0 191.5 -70.5t68.5 -208.5q0 -86 -27.5 -171t-78 -152.5t-124 -109.5t-165.5 -42q-123 0 -191.5 71t-68.5 208zM827 1157q0 70 -23.5 114t-94.5 44q-59 0 -103.5 -33t-73 -81 t-43 -105.5t-14.5 -106.5q0 -70 23.5 -114t95.5 -44q59 0 103 33t73 81t43 105.5t14 106.5zM1053 248q0 86 27.5 171t77.5 152.5t124 109.5t166 42q123 0 191.5 -70.5t68.5 -208.5q0 -86 -27.5 -171t-78 -152.5t-124 -109.5t-165.5 -42q-123 0 -191.5 71t-68.5 208z M1556 430q0 70 -23.5 114t-94.5 44q-59 0 -103.5 -33t-73 -81t-43 -105.5t-14.5 -106.5q0 -70 23.5 -114t95.5 -44q59 0 103 33t73 81t43 105.5t14 106.5z" />
<glyph unicode="&#x26;" horiz-adv-x="1310" d="M160 301q0 92 29.5 166t82 132t124 104.5t155.5 82.5q-35 57 -59.5 121t-24.5 146q0 92 30.5 165.5t87 126t137.5 80t179 27.5q57 0 110.5 -17.5t92.5 -52t62.5 -85t23.5 -117.5q0 -80 -28.5 -144.5t-81 -118t-124 -98.5t-157.5 -84l237 -329q98 125 158 288l166 -20 q-29 -86 -85 -191.5t-142 -206.5q51 -72 95 -141t68 -135h-196q-16 37 -40 75l-52 79q-92 -76 -206 -124t-261 -48q-102 0 -174 23.5t-118 66.5t-67.5 101t-21.5 128zM553 139q98 0 192.5 36t169.5 106l-282 389q-53 -23 -104.5 -54.5t-91.5 -72.5t-65.5 -93.5t-25.5 -115.5 q0 -86 46 -140.5t161 -54.5zM645 1065q0 -55 21.5 -108.5t54.5 -106.5q53 20 106.5 50t95.5 69t67.5 86t25.5 102q0 70 -38 106.5t-104 36.5q-92 0 -160.5 -58t-68.5 -177z" />
<glyph unicode="'" horiz-adv-x="483" d="M713 1556l-25 -102q-25 -100 -62.5 -212t-82.5 -216h-111q8 111 22.5 218.5t39.5 211.5l24 100h195z" />
<glyph unicode="(" horiz-adv-x="649" d="M1006 1513q-129 -129 -233.5 -273t-177.5 -299t-113 -317.5t-40 -330.5q0 -174 25 -313.5t84 -268.5l-145 -82q-70 123 -109 285t-39 340q0 389 156.5 725t464.5 625z" />
<glyph unicode=")" horiz-adv-x="649" d="M-102 -289q129 129 233.5 273.5t177 299t112.5 317.5t40 331q0 174 -24.5 313t-84.5 268l146 82q70 -123 108.5 -284.5t38.5 -339.5q0 -389 -156.5 -725t-463.5 -625z" />
<glyph unicode="*" horiz-adv-x="962" d="M811 1403q0 -86 -15 -164l-32 -164l144 80q71 39 157 68l12 4l58 -172l-17 -6q-82 -31 -164 -40.5t-168 -15.5l127 -111q59 -54 111 -126l10 -15l-149 -104l-8 12q-49 74 -85 147l-73 150l-73 -150q-36 -73 -85 -147l-8 -12l-150 104l11 15q51 72 110 126l127 111 q-86 6 -168 15.5t-164 40.5l-16 6l57 172l13 -4q86 -29 156 -68l145 -80l-32 164q-15 78 -15 164v16h184v-16z" />
<glyph unicode="+" d="M932 1112l-103 -422h373l-39 -162h-372l-103 -424h-172l100 424h-372l39 162h372l103 422h174z" />
<glyph unicode="," horiz-adv-x="503" d="M406 233q-10 -74 -35 -149.5t-61 -148t-81 -139t-94 -122.5l-129 54q41 55 75 120.5t58.5 133t41 132t22.5 119.5h203z" />
<glyph unicode="-" horiz-adv-x="600" d="M219 702h496l-41 -178h-496z" />
<glyph unicode="." horiz-adv-x="503" d="M262 -27q-57 0 -90 31t-33 90q0 74 44 114t102 40q57 0 91 -32t34 -93q0 -35 -13.5 -62.5t-34 -47t-47 -30t-53.5 -10.5z" />
<glyph unicode="/" horiz-adv-x="770" d="M55 -379h-190l1145 1983h190z" />
<glyph unicode="0" d="M1247 1026q0 -100 -18.5 -218t-54 -235.5t-91 -226t-130 -192.5t-169 -134.5t-206.5 -50.5q-174 0 -257 107.5t-83 318.5q0 100 18 218t54 236t91.5 226.5t130 192.5t168 134t207.5 50q174 0 257 -107.5t83 -318.5zM1053 1001q0 154 -37 219.5t-131 65.5q-63 0 -123 -39 t-110 -104.5t-91 -152.5t-69.5 -183t-44 -196.5t-15.5 -190.5q0 -154 37 -219.5t131 -65.5q66 0 124 39t108.5 104.5t91.5 152.5t69.5 183.5t44 195.5t15.5 191z" />
<glyph unicode="1" d="M836 1137q-29 -23 -69 -46.5t-86 -46t-95 -42t-94 -33.5l-31 157q123 45 251 116t244 177h138l-340 -1419h-191z" />
<glyph unicode="2" d="M1206 1130q0 -109 -34.5 -190.5t-94 -150t-137.5 -129.5l-166 -125l-108 -84q-57 -45 -108.5 -93.5t-90.5 -98.5t-55 -99h616l-37 -160h-829q16 109 58 197t100.5 161.5t129 135t146.5 118.5l155 116q75 56 132 114.5t92 122t35 139.5q0 86 -46 134t-151 48 q-57 0 -108.5 -14.5t-92.5 -34.5t-72.5 -44t-50.5 -42l-65 147q29 27 72 53.5t97 49t116.5 37t128.5 14.5q98 0 168.5 -27.5t114.5 -72.5t64.5 -103t20.5 -119z" />
<glyph unicode="3" d="M510 137q82 0 152.5 19.5t123 58.5t81 97.5t28.5 136.5q0 123 -89 176t-237 53h-43l37 156h64q68 0 132 17t116.5 53t84 88t31.5 122q0 86 -52 130t-151 44q-88 0 -158.5 -27.5t-121.5 -60.5l-45 148q27 18 65.5 36.5t86 34t99.5 24.5t105 9q96 0 165 -24.5t114 -67.5 t65.5 -101.5t20.5 -123.5q0 -135 -79 -230.5t-214 -148.5q35 -14 70.5 -40t63.5 -64t45 -88t17 -111q0 -109 -37.5 -198t-111.5 -152.5t-182.5 -98.5t-251.5 -35q-72 0 -132.5 10.5t-107.5 23.5t-78.5 27.5t-44.5 22.5l72 162q14 -8 40 -21.5t62.5 -25.5t85 -21.5 t109.5 -9.5z" />
<glyph unicode="4" d="M985 362l-86 -362h-184l86 362h-623l31 130q57 96 150.5 219t207 249.5t238.5 246.5t248 212h186l-217 -901h166l-37 -156h-166zM999 1182q-74 -61 -153.5 -138t-157.5 -163t-149.5 -178.5t-128.5 -184.5h430z" />
<glyph unicode="5" d="M754 1260q-12 -41 -30 -95l-36 -107l-35 -104l-26 -82q233 -31 351 -127t118 -274q0 -104 -35 -196.5t-108.5 -160t-187.5 -106.5t-269 -39q-66 0 -124.5 10.5t-104.5 23.5t-76.5 26.5t-40.5 19.5l73 160q29 -16 99.5 -44t183.5 -28q84 0 156.5 21.5t126 61.5t84 99.5 t30.5 133.5q0 94 -51 148t-127 82t-164 36t-162 12l64 180l58 169q28 83 52.5 166t47.5 173h663l-37 -159h-493z" />
<glyph unicode="6" d="M483 651q-20 -66 -30.5 -134t-10.5 -122q0 -129 46.5 -199.5t162.5 -70.5q80 0 141.5 34t103.5 89t63.5 123.5t21.5 140.5q0 98 -48 149.5t-159 51.5q-72 0 -144.5 -13.5t-146.5 -48.5zM254 379q0 215 72.5 405.5t205 333t319.5 225t419 82.5h26l-22 -161h-10 q-145 0 -263 -38t-210.5 -100.5t-157 -146.5t-101.5 -176q66 33 142 50t145 17q92 0 158.5 -27.5t109.5 -73.5t62.5 -107.5t19.5 -129.5q0 -102 -31.5 -203.5t-97 -181t-169 -129t-246.5 -49.5q-180 0 -275.5 110t-95.5 300z" />
<glyph unicode="7" d="M324 0q31 109 81 226.5t113.5 236.5t136 233.5t148.5 218t152.5 190.5t146.5 148h-674l39 166h891l-39 -164q-88 -76 -203 -211t-227.5 -304t-210.5 -359.5t-154 -380.5h-200z" />
<glyph unicode="8" d="M961 715q70 -47 117.5 -116t47.5 -177q0 -90 -33.5 -172t-101 -144.5t-170 -99.5t-237.5 -37q-102 0 -174 29t-117 74t-65.5 102t-20.5 115q0 147 87 262t241 190q-125 98 -125 254q0 92 33.5 174t97 145.5t154.5 100.5t206 37q94 0 163 -26.5t112 -71.5t63.5 -101.5 t20.5 -115.5q0 -141 -79 -246.5t-220 -175.5zM676 670q-55 -25 -106.5 -62t-90.5 -82t-61.5 -97t-22.5 -107q0 -41 10.5 -76t35 -62.5t65.5 -43t102 -15.5q68 0 128.5 20.5t105.5 57.5t70.5 88t25.5 112q0 100 -69.5 162t-192.5 105zM811 780q51 25 98 57.5t83 74.5 t57.5 92.5t21.5 111.5q0 31 -8 63.5t-29.5 58.5t-59.5 42t-95 16q-61 0 -112.5 -21.5t-89.5 -58t-59.5 -89t-21.5 -113.5q0 -86 51 -141.5t164 -92.5z" />
<glyph unicode="9" d="M668 557q-92 0 -159 26.5t-110 72.5t-63.5 107.5t-20.5 129.5q0 102 32 202.5t98.5 179.5t167 127t235.5 48q190 0 286.5 -109.5t96.5 -300.5q0 -219 -68.5 -409.5t-197.5 -331.5t-315.5 -222t-422.5 -81h-21q-11 0 -32 2l35 162q6 -2 19 -2h18q143 0 256.5 35.5t201 99 t148.5 147.5t102 183q-66 -33 -141 -49.5t-145 -16.5zM713 715q72 0 144.5 13t146.5 48q18 61 28 130t10 136q0 113 -49 182.5t-159 69.5q-80 0 -141.5 -33.5t-103.5 -87t-63.5 -122t-21.5 -138.5q0 -98 49 -148t160 -50z" />
<glyph unicode=":" horiz-adv-x="503" d="M457 790q-57 0 -90 31t-33 90q0 74 44 114t102 40q57 0 91 -32t34 -93q0 -35 -13.5 -62.5t-34 -47t-47 -30t-53.5 -10.5zM262 -27q-57 0 -90 31t-33 90q0 74 44 114t102 40q57 0 91 -32t34 -93q0 -35 -13.5 -62.5t-34 -47t-47 -30t-53.5 -10.5z" />
<glyph unicode=";" horiz-adv-x="503" d="M406 233q-10 -74 -35 -149.5t-61 -148t-81 -139t-94 -122.5l-129 54q41 55 75 120.5t58.5 133t41 132t22.5 119.5h203zM457 790q-57 0 -90 31t-33 90q0 74 44 114t102 40q57 0 91 -32t34 -93q0 -35 -13.5 -62.5t-34 -47t-47 -30t-53.5 -10.5z" />
<glyph unicode="&#x3c;" d="M1022 152l-778 374l39 164l958 375l12 -168l-782 -299l637 -297z" />
<glyph unicode="=" d="M336 907h919l-38 -162h-920zM231 471h920l-39 -162h-919z" />
<glyph unicode="&#x3e;" d="M424 1065l778 -375l-39 -164l-958 -374l-12 167l782 299l-637 297z" />
<glyph unicode="?" horiz-adv-x="786" d="M999 1161q0 -68 -24.5 -125t-64.5 -105t-89 -90t-100 -81q-76 -59 -138.5 -124t-84.5 -155q-4 -12 -5 -23.5t-1 -15.5h-166q2 25 4 45.5t6 40.5q25 104 96.5 179t163.5 147l80 66q39 33 68.5 67.5t47 74.5t17.5 87q0 23 -6 49.5t-25.5 48t-54.5 35.5t-92 14 q-98 0 -164 -22.5t-102 -40.5l-21 147q49 29 134 50.5t177 21.5q96 0 162 -22.5t107 -61.5t58 -92.5t17 -114.5zM360 -27q-57 0 -89.5 31t-32.5 90q0 74 44 114t101 40t91 -32t34 -93q0 -35 -13.5 -62.5t-34 -47t-47 -30t-53.5 -10.5z" />
<glyph unicode="@" horiz-adv-x="1906" d="M1421 88q-129 0 -182 72q-47 -29 -110.5 -46.5t-135.5 -17.5q-154 0 -246 87t-92 261q0 117 40 226.5t116 192.5t184.5 133.5t247.5 50.5q106 0 185 -18.5t120 -35.5l-149 -622q-10 -31 -10 -60q0 -25 13 -43t54 -18q86 0 147.5 50t102.5 129t60.5 173t19.5 182 q0 113 -28.5 207t-93.5 162t-169 105.5t-256 37.5q-178 0 -331.5 -76.5t-266.5 -204.5t-176.5 -297t-63.5 -353q0 -137 40 -235.5t112 -162t172 -94.5t221 -31q119 0 200 15.5t103 23.5l-14 -151q-18 -6 -53 -13.5t-79 -14.5t-94.5 -11t-99.5 -4q-147 0 -272 42t-216 125 t-142.5 205.5t-51.5 284.5q0 205 69 404.5t202 355.5t325.5 252t442.5 96q334 0 514 -166t180 -489q0 -96 -21.5 -218t-81 -231.5t-165 -184.5t-271.5 -75zM1020 250q111 0 188 41q0 35 4.5 58.5t10.5 45.5l116 482q-10 4 -44.5 8t-75.5 4q-88 0 -158 -35t-119 -94.5 t-75.5 -137t-26.5 -161.5q0 -111 46 -161t134 -50z" />
<glyph unicode="A" horiz-adv-x="1302" d="M438 365l-200 -365h-218q229 414 448 762l431 657h195q31 -154 56.5 -310.5t50 -328.5t46.5 -364l47 -416h-200q-10 92 -18.5 185.5t-18.5 179.5h-619zM1038 524q-16 166 -37.5 330t-50.5 338l-178 -269q-106 -165 -242 -399h508z" />
<glyph unicode="B" horiz-adv-x="1265" d="M539 -14q-41 0 -89.5 2t-97.5 6t-96 11t-84 18l330 1376q86 20 191.5 27.5t189.5 7.5q104 0 191 -17.5t149.5 -55.5t98.5 -99.5t36 -147.5q0 -125 -75 -220t-206 -142q88 -33 142.5 -100.5t54.5 -166.5q0 -141 -57.5 -237t-156.5 -154.5t-233 -83t-288 -24.5zM520 664 l-119 -504q23 -4 68 -7t115 -3q76 0 161.5 11t157.5 45t120 95t48 164q0 100 -71.5 149.5t-231.5 49.5h-248zM559 819h195q68 0 138.5 11.5t128.5 41t96 81t38 130.5q0 104 -78 145.5t-237 41.5q-53 0 -104.5 -4t-69.5 -9z" />
<glyph unicode="C" horiz-adv-x="1228" d="M793 -31q-133 0 -234.5 39t-169 110.5t-101.5 173t-34 228.5q0 184 58.5 352t166 297t259 206t337.5 77q160 0 255 -33t136 -61l-82 -164q-47 31 -127.5 58.5t-191.5 27.5q-141 0 -254 -66.5t-190.5 -172t-118.5 -237.5t-41 -261q0 -399 346 -400q74 0 132 10.5t103 23.5 t80 30l62 29l24 -173q-25 -14 -64.5 -30.5t-93 -30.5t-118.5 -23.5t-139 -9.5z" />
<glyph unicode="D" horiz-adv-x="1415" d="M850 1266q-154 0 -184 -9l-263 -1093q16 -4 55.5 -7t127.5 -3q162 0 292 54t220 151.5t139 231.5t49 294q0 180 -104.5 280.5t-331.5 100.5zM866 1434q315 0 471 -148.5t156 -400.5q0 -176 -55.5 -339t-172 -288t-298 -198.5t-432.5 -73.5q-86 0 -186.5 8t-176.5 29 l330 1378q86 20 182 26.5t182 6.5z" />
<glyph unicode="E" horiz-adv-x="1140" d="M166 0l340 1419h837l-38 -166h-641l-103 -428h569l-38 -161h-568l-121 -498h689l-39 -166h-887z" />
<glyph unicode="F" horiz-adv-x="1073" d="M166 0l340 1419h829l-39 -166h-632l-105 -434h561l-39 -162h-559l-157 -657h-199z" />
<glyph unicode="G" horiz-adv-x="1333" d="M778 -29q-258 0 -391 148.5t-133 400.5q0 184 58.5 352t167 297t261 206t342.5 77q94 0 163 -12.5t118 -28.5t80 -33.5t49 -29.5l-88 -162q-16 10 -45 26.5t-70 32t-94 25.5t-121 10q-145 0 -260 -66.5t-193.5 -172t-119.5 -237.5t-41 -261q0 -203 86 -302.5t272 -99.5 q76 0 137.5 10.5t87.5 20.5l123 520h195l-156 -647q-25 -14 -67.5 -27.5t-100 -23.5t-124 -16.5t-136.5 -6.5z" />
<glyph unicode="H" horiz-adv-x="1394" d="M1221 0h-199l158 659h-658l-157 -659h-199l340 1419h199l-144 -594h658l143 594h199z" />
<glyph unicode="I" horiz-adv-x="538" d="M506 1419h199l-340 -1419h-199z" />
<glyph unicode="J" horiz-adv-x="987" d="M932 457q-25 -98 -55.5 -187.5t-87 -156t-147.5 -105.5t-234 -39q-72 0 -130.5 13.5t-103.5 34t-76.5 42t-48.5 39.5l98 150q33 -33 98.5 -70t166.5 -37q74 0 125 18.5t88 58.5t62.5 103.5t47.5 153.5l228 944h198z" />
<glyph unicode="K" horiz-adv-x="1257" d="M1536 1419l-175 -156l-203 -178l-212 -180l-203 -166q63 -59 134 -147t139.5 -188.5t131 -205t109.5 -198.5h-221q-53 94 -114.5 192.5t-126 188.5t-132 169t-135.5 134l-163 -684h-199l340 1419h199l-150 -620l195 153l204 172l188 164l144 131h250z" />
<glyph unicode="L" horiz-adv-x="1038" d="M1032 166l-39 -166h-827l340 1419h199l-302 -1253h629z" />
<glyph unicode="M" horiz-adv-x="1734" d="M1604 1114l-82 -117l-107 -157l-119 -180l-118 -180l-107 -162l-80 -121h-160l-21 124l-30 161l-34 181l-34 179l-32 156q-14 71 -25 116q-86 -264 -168 -545l-159 -569h-197l103 372l111 368l113 354l109 325h195q25 -90 52 -213l55 -257q28 -134 51.5 -267t40.5 -242 l162 244l180 267l175 256l152 212h191q-35 -346 -93.5 -703.5t-128.5 -715.5h-198q61 295 112.5 572.5t90.5 541.5z" />
<glyph unicode="N" horiz-adv-x="1429" d="M1081 0l-88 270q-51 152 -111.5 307.5t-124 302t-124.5 255.5l-273 -1135h-194l340 1419h170q66 -111 134.5 -251t131 -287.5t115.5 -288.5t88 -254l254 1081h194l-338 -1419h-174z" />
<glyph unicode="O" horiz-adv-x="1513" d="M1075 1452q113 0 208 -34t164 -101.5t106.5 -168.5t37.5 -237q0 -170 -52 -337.5t-154.5 -302t-256 -218.5t-358.5 -84q-115 0 -209 34t-162.5 101.5t-106.5 169t-38 236.5q0 168 51 337t154.5 303t257 218t358.5 84zM791 141q137 0 247.5 66.5t187.5 173t117.5 240 t40.5 266.5q0 182 -78.5 287.5t-250.5 105.5q-139 0 -249 -66.5t-186.5 -173t-117.5 -239.5t-41 -266q0 -182 79 -288t251 -106z" />
<glyph unicode="P" horiz-adv-x="1208" d="M866 1434q248 0 374 -94.5t126 -274.5q0 -139 -52 -240.5t-148.5 -167t-231.5 -97.5t-301 -32h-141l-127 -528h-199l336 1401q86 20 182 26.5t182 6.5zM842 1266q-145 0 -176 -9l-136 -563h129q86 0 176.5 15.5t162 54.5t117.5 107.5t46 177.5q0 117 -86 167t-233 50z " />
<glyph unicode="Q" horiz-adv-x="1513" d="M887 -23q-2 -6 -2 -14v-12q0 -41 31.5 -69.5t84 -49t121 -34t142.5 -21.5l-70 -156q-72 8 -160 24.5t-164.5 52.5t-128 95.5t-51.5 153.5v10q0 6 2 16q-197 20 -317.5 155.5t-120.5 381.5q0 168 51 337t154.5 303t257 218t358.5 84q113 0 208 -34t164 -101.5 t106.5 -168.5t37.5 -237q0 -158 -44 -313.5t-133 -285.5t-221 -220t-306 -115zM791 141q137 0 247.5 66.5t187.5 173t117.5 240t40.5 266.5q0 182 -78.5 287.5t-250.5 105.5q-139 0 -249 -66.5t-186.5 -173t-117.5 -239.5t-41 -266q0 -182 79 -288t251 -106z" />
<glyph unicode="R" horiz-adv-x="1247" d="M866 1434q227 0 360.5 -92.5t133.5 -270.5q0 -180 -105.5 -302t-296.5 -175q25 -43 58 -109.5t67.5 -147.5t67.5 -168t57 -169h-202l-60 158q-31 80 -62.5 153.5t-63.5 138l-58 113.5q-27 -2 -53.5 -3t-53.5 -1h-157l-133 -559h-199l336 1401q86 20 182 26.5t182 6.5z M842 1266q-145 0 -176 -9l-129 -536h120q84 0 172.5 12t161 48t118.5 100.5t46 171.5q0 115 -87 164t-226 49z" />
<glyph unicode="S" horiz-adv-x="1058" d="M504 141q63 0 125.5 13.5t112 44t80 81t30.5 123.5q0 51 -19.5 89t-53.5 68t-80 55l-101 55q-47 25 -95 53.5t-86 70.5t-61.5 99t-23.5 137q0 92 35.5 170t105.5 134.5t171 87t233 30.5q61 0 116.5 -9t101.5 -23.5t80.5 -30t51.5 -27.5l-92 -156q-35 29 -112 52.5 t-181 23.5q-66 0 -122 -13.5t-97 -42t-66 -72.5t-25 -105q0 -53 16.5 -89t45.5 -64t71 -50l91 -47q61 -31 115.5 -62.5t95.5 -75t64.5 -100.5t23.5 -139q0 -113 -44 -198t-121 -141t-182.5 -85t-228.5 -29q-82 0 -148.5 11.5t-116.5 28t-85 33.5t-53 32l92 162 q39 -27 123 -61t213 -34z" />
<glyph unicode="T" horiz-adv-x="1136" d="M1432 1419l-39 -166h-428l-301 -1253h-199l301 1253h-428l39 166h1055z" />
<glyph unicode="U" horiz-adv-x="1363" d="M684 -31q-106 0 -184 32t-129.5 86t-76 129t-24.5 161q0 45 8.5 100t18.5 103l201 839h198l-204 -852q-10 -39 -16.5 -86t-6.5 -88q0 -53 12.5 -98t42 -79t76.5 -53.5t115 -19.5q174 0 270 97.5t145 310.5l209 868h199l-213 -891q-29 -117 -66.5 -219t-107.5 -177 t-181.5 -119t-285.5 -44z" />
<glyph unicode="V" horiz-adv-x="1275" d="M678 236q86 123 175 264l178 294l174 310l163 315h219l-220 -404l-213 -367l-211 -336q-105 -161 -216 -312h-195q-31 154 -57 310.5t-49 328.5t-44.5 363.5t-41.5 416.5h205q33 -365 62.5 -653t70.5 -530z" />
<glyph unicode="W" horiz-adv-x="1875" d="M1305 1247q16 -274 45.5 -532t58.5 -461l128 252l133 288l133 309l128 316h211q-164 -406 -326.5 -756t-342.5 -663h-201q-35 217 -68 447.5t-53 502.5l-273 -484q-134 -230 -286 -466h-201q-16 166 -22.5 332t-6.5 344t6.5 359.5t18.5 383.5h197q-14 -215 -22.5 -425 t-8.5 -427q0 -158 6 -313q141 217 282 469l281 524h183z" />
<glyph unicode="X" horiz-adv-x="1239" d="M991 0q-47 143 -103.5 291.5t-125.5 302.5l-502 -594h-233l653 758l-289 661h219l215 -522l217 260q106 131 199 262h227q-123 -168 -270 -341l-291 -333l155 -374q77 -190 136 -371h-207z" />
<glyph unicode="Y" horiz-adv-x="1171" d="M475 0l135 569q-80 215 -148.5 431.5t-125.5 418.5h215q39 -166 87 -338t107 -331l274 331q138 174 245 338h227l-322 -419l-360 -431l-135 -569h-199z" />
<glyph unicode="Z" horiz-adv-x="1148" d="M1364 1262l-135 -127l-168 -167l-185 -193l-190 -207l-180 -208q-86 -102 -156 -194h766l-39 -166h-1005l30 133q59 80 138 175l166 199l182 208l186 203l178 184l158 151h-702l38 166h955z" />
<glyph unicode="[" horiz-adv-x="659" d="M575 1604h453l-35 -150h-274l-406 -1683h275l-37 -150h-453z" />
<glyph unicode="\" horiz-adv-x="770" d="M338 1604h174l217 -1983h-178z" />
<glyph unicode="]" horiz-adv-x="659" d="M369 -379h-453l35 150h274l406 1683h-275l37 150h453z" />
<glyph unicode="^" d="M862 1229l-456 -572l-140 84l549 684h162l223 -702l-156 -68z" />
<glyph unicode="_" horiz-adv-x="1015" d="M-55 -217h1024l-39 -162h-1024z" />
<glyph unicode="`" horiz-adv-x="770" d="M610 1595l260 -327l-100 -88l-299 299z" />
<glyph unicode="a" horiz-adv-x="1114" d="M885 -12q-10 23 -20.5 50.5t-16.5 57.5q-45 -41 -121 -82t-186 -41q-90 0 -154.5 29t-105.5 80t-60.5 120.5t-19.5 153.5q0 137 46 268.5t138 234t231.5 165.5t325.5 63q55 0 129 -12t127 -41l-158 -643q-10 -47 -17 -90t-7 -90t8 -95t29 -104zM580 135q86 0 147 37 t107 86q2 35 7 73t13 77l123 507q-10 4 -33.5 6.5t-42.5 2.5q-117 0 -211 -45t-160.5 -120t-102.5 -174.5t-36 -207.5q0 -43 8.5 -87t30 -78t57.5 -55.5t93 -21.5z" />
<glyph unicode="b" horiz-adv-x="1136" d="M592 1022q47 29 108.5 49.5t130.5 20.5q88 0 155 -29t110 -79t64.5 -119.5t21.5 -149.5q0 -141 -45 -273.5t-137.5 -236t-230.5 -166t-325 -62.5q-31 0 -67.5 3.5t-74.5 11.5t-73.5 20.5t-62.5 28.5l362 1515l199 33zM784 930q-61 0 -121.5 -21.5t-113.5 -60.5l-166 -694 q20 -4 47 -8.5t53 -4.5q117 0 211 46t160 123t101.5 176.5t35.5 207.5q0 45 -9 88t-32.5 76t-64 52.5t-101.5 19.5z" />
<glyph unicode="c" horiz-adv-x="923" d="M205 381q0 139 42 268t124 227.5t200.5 157t272.5 58.5q68 0 129 -9.5t117 -35.5l-72 -160q-33 18 -77 28.5t-114 10.5q-100 0 -180 -44t-136 -117t-86 -168t-30 -198q0 -53 11.5 -100t40 -83t76.5 -56.5t122 -20.5q37 0 78 7.5t76 17.5t62.5 21.5t39.5 21.5l17 -162 q-39 -25 -121 -48.5t-187 -23.5q-98 0 -174 30t-127 84t-77.5 129t-26.5 165z" />
<glyph unicode="d" horiz-adv-x="1120" d="M1022 211q0 -47 8 -95t29 -104l-168 -24q-23 45 -35 108q-45 -41 -121 -82t-186 -41q-90 0 -155.5 28t-108.5 79t-63.5 121.5t-20.5 154.5q0 137 46 268.5t137 234t228.5 164.5t319.5 62q23 0 45 -2t47 -6l115 479l198 33l-288 -1198l-18.5 -90t-8.5 -90zM588 135 q86 0 146.5 36t105.5 83q2 33 7 70.5t15 83.5l123 512q-18 4 -40.5 5t-43.5 1q-117 0 -211 -45t-160.5 -121t-102.5 -175.5t-36 -207.5q0 -47 10.5 -90t33 -77t60.5 -54.5t93 -20.5z" />
<glyph unicode="e" horiz-adv-x="1060" d="M418 559q119 4 217 15.5t170 39t111.5 74.5t39.5 123q0 18 -7 38.5t-24.5 38t-48 29t-75.5 11.5q-72 0 -134.5 -31t-111.5 -81t-84 -116.5t-53 -140.5zM612 -27q-104 0 -180 30t-127 82t-75.5 121.5t-24.5 147.5q0 143 43 276.5t123 236t194.5 163t259.5 60.5 q84 0 144.5 -21.5t98.5 -58.5t56.5 -85t18.5 -100q0 -96 -35 -162.5t-92.5 -111.5t-134 -69.5t-159.5 -39t-168 -19.5t-161 -9q-2 -16 -2 -27v-16q0 -47 11.5 -89t42 -74t85 -50.5t142.5 -18.5q39 0 81 7.5t79.5 18.5t67.5 22.5t42 21.5l16 -162q-41 -23 -132 -48.5 t-214 -25.5z" />
<glyph unicode="f" horiz-adv-x="753" d="M602 1065h356l-36 -160h-357l-164 -676l-43 -186q-18 -82 -43.5 -153.5t-67.5 -138t-114 -138.5l-168 25q61 80 96 135t58.5 112.5t41.5 131.5l46 194l227 950q25 102 63 182t96 134.5t138 83t191 28.5q72 0 136 -14t97 -31l-76 -151q-16 8 -56 20t-118 12 q-68 0 -115 -19.5t-79.5 -54t-52 -83.5t-33.5 -111z" />
<glyph unicode="g" horiz-adv-x="1126" d="M414 -221q84 0 147.5 20.5t109.5 59.5t74.5 92t45.5 121l8 39q-41 -23 -111 -45.5t-143 -22.5q-166 0 -255 83t-89 232q0 137 45 268.5t137 234t229.5 164.5t321.5 62q29 0 64.5 -4t73.5 -11t74 -19.5t62 -28.5l-223 -932q-27 -111 -65.5 -199t-106.5 -149t-174.5 -95 t-265.5 -34q-88 0 -174 23.5t-146 58.5l72 160q47 -35 125 -56.5t164 -21.5zM586 203q82 0 150.5 29.5t105.5 56.5l149 622q-20 4 -46.5 8.5t-51.5 4.5q-111 0 -203 -42t-158.5 -113t-103.5 -164t-37 -193q0 -111 48.5 -160t146.5 -49z" />
<glyph unicode="h" horiz-adv-x="1130" d="M156 0l374 1556l199 33l-131 -538q47 16 99.5 26t105.5 10q92 0 158.5 -25.5t107.5 -69.5t60.5 -106.5t19.5 -135.5q0 -90 -29 -205l-131 -545h-190l121 504l27.5 116.5t13.5 112.5q0 82 -45.5 136.5t-167.5 54.5q-49 0 -101.5 -9.5t-87.5 -25.5l-213 -889h-190z" />
<glyph unicode="i" horiz-adv-x="509" d="M346 0h-190l256 1065h190zM567 1257q-47 0 -78.5 29t-31.5 80q0 66 41 103.5t92 37.5q47 0 79.5 -29.5t32.5 -82.5q0 -61 -43 -99.5t-92 -38.5z" />
<glyph unicode="j" horiz-adv-x="509" d="M356 41q-29 -115 -62.5 -196t-83.5 -132t-120 -74.5t-170 -23.5q-35 0 -79 10t-68 27l43 158q23 -14 57.5 -22.5t75.5 -8.5q92 0 140 71.5t77 188.5l246 1026h190zM569 1257q-47 0 -78.5 29t-31.5 80q0 66 41 103.5t92 37.5q47 0 80 -29.5t33 -82.5q0 -61 -43.5 -99.5 t-92.5 -38.5z" />
<glyph unicode="k" horiz-adv-x="1058" d="M156 0l374 1556l199 33l-229 -948q68 49 139 108l136 115l119 110q54 52 89 91h225q-43 -53 -109 -119l-141 -132l-148 -128q-75 -61 -134 -104q55 -51 111.5 -122t108.5 -150t95 -159.5t72 -150.5h-207q-72 166 -171 305t-210 227l-129 -532h-190z" />
<glyph unicode="l" horiz-adv-x="565" d="M440 469l-20 -88q-10 -43 -10 -82q0 -70 33.5 -111t125.5 -51l-43 -155q-84 2 -142 25.5t-94 62.5t-52.5 92t-16.5 117q0 47 8.5 98t22.5 106l258 1073l199 33z" />
<glyph unicode="m" horiz-adv-x="1695" d="M1389 1087q90 0 152.5 -27.5t100 -74.5t54 -109.5t16.5 -132.5q0 -45 -7 -97t-19 -101l-132 -545h-190l121 504l23 105q13 58 14 116q0 39 -9.5 76t-31 63.5t-60.5 43t-96 16.5q-66 0 -127 -26t-102 -52q4 -29 7 -56.5t3 -54.5q0 -47 -7 -95t-18 -95l-131 -545h-190 l121 504l22 106q12 59 12 119q0 39 -8 75t-27.5 62.5t-52 42t-84.5 15.5q-51 0 -99 -6.5t-81 -16.5l-217 -901h-190l245 1024q92 29 202 46t196 17t145.5 -29.5t93.5 -78.5q20 14 56 32.5t82.5 35t101 28.5t111.5 12z" />
<glyph unicode="n" horiz-adv-x="1128" d="M346 0h-190l245 1024q94 29 204 46t196 17q92 0 158.5 -25.5t107.5 -69.5t60.5 -106.5t19.5 -135.5q0 -47 -8.5 -99.5t-20.5 -105.5l-131 -545h-190l121 504q14 57 27 116.5t13 112.5q0 82 -45 136.5t-168 54.5q-51 0 -100 -6.5t-82 -16.5z" />
<glyph unicode="o" horiz-adv-x="1136" d="M563 -27q-168 0 -263 99.5t-95 273.5q0 119 33.5 250t107.5 241.5t190.5 182.5t282.5 72q168 0 263.5 -99.5t95.5 -273.5q0 -119 -34 -250t-107.5 -241.5t-190.5 -182.5t-283 -72zM596 135q92 0 165 53.5t123 136.5t76.5 183t26.5 194q0 104 -45 166t-156 62 q-92 0 -164.5 -53.5t-122.5 -136.5t-77 -183t-27 -195q0 -104 45 -165.5t156 -61.5z" />
<glyph unicode="p" horiz-adv-x="1118" d="M776 1092q100 0 173 -29t120 -79t70.5 -118.5t23.5 -150.5q0 -141 -43 -273.5t-132 -235t-225 -163.5t-323 -61q-23 0 -49 2t-47 6l-88 -369h-190l335 1399q86 35 187.5 53.5t187.5 18.5zM383 150q20 -4 44 -5.5t46 -1.5q117 0 209 45t156.5 122t99.5 176.5t35 207.5 q0 45 -10.5 88t-38 76t-74.5 52.5t-121 19.5q-51 0 -94 -9.5t-72 -17.5z" />
<glyph unicode="q" horiz-adv-x="1128" d="M682 -379l98 412q-47 -25 -106.5 -42.5t-124.5 -17.5q-90 0 -155.5 28t-108.5 79t-63.5 121.5t-20.5 154.5q0 137 46 268.5t138 234t231.5 165.5t325.5 63q57 0 132 -13t136 -46l-338 -1407h-190zM596 135q59 0 118.5 19.5t108.5 56.5l170 702q-57 10 -92 11 q-117 0 -211 -45t-160.5 -120t-102.5 -174.5t-36 -207.5q0 -47 9.5 -90t32 -77t62.5 -54.5t101 -20.5z" />
<glyph unicode="r" horiz-adv-x="761" d="M766 1087q25 0 55.5 -2t60 -7t54.5 -10t37 -11l-55 -166q-41 16 -94.5 24.5t-102.5 8.5q-43 0 -85 -6.5t-73 -16.5l-217 -901h-190l245 1024q82 29 176.5 46t188.5 17z" />
<glyph unicode="s" horiz-adv-x="843" d="M422 133q43 0 87 8.5t78 26.5t55.5 50t21.5 79q0 31 -10.5 54.5t-33 44t-56.5 40t-81 43.5q-47 23 -86 45.5t-68.5 53t-46 72.5t-16.5 102q0 154 110.5 247t321.5 93q98 0 173 -19.5t104 -36.5l-72 -155q-29 16 -92 34.5t-141 18.5q-39 0 -78 -8t-71 -27.5t-51 -51.5 t-19 -77q0 -55 43 -91t129 -75q53 -25 95 -50.5t71.5 -57t45 -74.5t15.5 -103q0 -86 -33 -151.5t-91 -108.5t-138 -64.5t-174 -21.5q-70 0 -126.5 9.5t-98.5 21.5t-69.5 25.5t-41.5 21.5l74 156q14 -8 39.5 -20.5t61.5 -24.5t79 -20.5t90 -8.5z" />
<glyph unicode="t" horiz-adv-x="796" d="M520 -29q-154 0 -225.5 67.5t-71.5 197.5q0 84 29 215l219 911l199 33l-80 -330h362l-39 -160h-362l-113 -471q-25 -96 -24 -168q0 -68 36.5 -97.5t122.5 -29.5q59 0 117 19.5t88 36.5l15 -162q-31 -18 -105 -40t-168 -22z" />
<glyph unicode="u" horiz-adv-x="1126" d="M545 -27q-90 0 -150.5 27t-98.5 72t-54.5 106.5t-16.5 130.5q0 53 9.5 105.5t21.5 105.5l131 545h191l-121 -504q-10 -47 -26.5 -110.5t-16.5 -126.5q0 -37 7 -71t26.5 -59.5t52 -41t82.5 -15.5q88 0 154.5 38t111.5 89q2 33 6 68t14 76l158 657h191l-162 -674 q-10 -47 -17.5 -91t-7.5 -91t8.5 -94t28.5 -103l-168 -24q-10 23 -20.5 51.5t-16.5 60.5q-23 -20 -53.5 -42.5t-70.5 -41t-88 -31t-105 -12.5z" />
<glyph unicode="v" horiz-adv-x="985" d="M395 0q-25 104 -47 229t-40.5 261.5t-31 282t-16.5 292.5h193q2 -100 9 -214t17 -227.5t24.5 -219t31.5 -191.5q61 78 127.5 183.5t128 221t112.5 232.5t82 215h193q-45 -135 -115 -280.5t-151 -286t-170 -269.5t-173 -229h-174z" />
<glyph unicode="w" horiz-adv-x="1611" d="M1174 221q51 63 114.5 167t125 221.5t114.5 237.5t82 218h194q-45 -141 -114.5 -290.5t-150.5 -290t-168 -265.5t-167 -219h-170q-23 178 -40 358.5t-21 366.5q-41 -92 -92.5 -190.5t-108.5 -193.5l-115 -183q-57 -88 -110 -158h-170q-43 211 -69.5 480.5t-31.5 584.5 h191q2 -96 6 -209t10 -226.5t14.5 -220t20.5 -188.5q63 88 126 194.5t119 217t104 221.5t83 211h172q0 -92 3 -197.5t10.5 -216t17 -220.5t21.5 -210z" />
<glyph unicode="x" horiz-adv-x="968" d="M647 682l159 201q73 96 126 182h207q-88 -129 -194 -261l-216 -261l131 -268q66 -138 113 -275h-199q-31 92 -79 199l-95 204l-354 -403h-221l491 549l-264 516h211z" />
<glyph unicode="y" horiz-adv-x="978" d="M575 172q78 123 141.5 255t112 253t81 222.5t46.5 162.5h199q-23 -78 -63.5 -193.5t-99 -250t-131.5 -274.5t-159 -269q-66 -96 -131 -181t-140 -147.5t-165 -98.5t-203 -36q-57 0 -106 14.5t-72 30.5l66 156q20 -16 55 -27.5t78 -11.5q119 0 202 57t156 152 q-76 248 -124 522t-58 557h195q2 -92 10 -201.5t23.5 -227.5t36.5 -236.5t50 -227.5z" />
<glyph unicode="z" horiz-adv-x="929" d="M1073 928l-161 -151l-212 -209l-212 -221q-101 -110 -160 -187h571l-37 -160h-794l28 123q61 90 156 200l195 218l200 204q98 96 172 160h-510l37 160h760z" />
<glyph unicode="{" horiz-adv-x="667" d="M246 686q45 0 84 17.5t68.5 45t49 63.5t27.5 73l88 368q23 94 56.5 161t88 109t133.5 61.5t189 19.5h8l-37 -150q-55 0 -98 -7t-74.5 -29.5t-54 -62.5t-37.5 -104l-75 -315q-33 -135 -79 -211t-132 -113q43 -35 60 -83t17 -101q0 -35 -6 -69.5t-14 -69.5l-76 -316 q-6 -29 -10 -51t-4 -41q0 -66 43 -86t135 -24l-39 -150h-8q-147 0 -227 52.5t-80 174.5q0 47 16 123l88 369q8 31 8 59q0 57 -33.5 96.5t-111.5 43.5z" />
<glyph unicode="|" horiz-adv-x="563" d="M575 1604h175l-478 -1983h-174z" />
<glyph unicode="}" horiz-adv-x="667" d="M707 539q-47 0 -86 -17.5t-68 -45t-48.5 -63.5t-27.5 -73l-88 -369q-23 -94 -56.5 -160.5t-88 -108.5t-133 -61.5t-189.5 -19.5h-8l37 150q57 0 99 7t74 29.5t53.5 61.5t37.5 104l76 316q33 135 79 210.5t132 112.5q-43 35 -60.5 83t-17.5 102q0 35 6 69.5t14 69.5 l76 315l10.5 51.5t4.5 40.5q0 66 -43 86.5t-136 24.5l39 150h8q147 0 227.5 -52.5t80.5 -175.5q0 -47 -17 -123l-88 -368q-8 -31 -8 -60q0 -57 34 -96t111 -43z" />
<glyph unicode="~" d="M752 694l84 -60q37 -28 92 -28q33 0 60.5 16.5t48 40t37 52t28.5 53.5l131 -41q-16 -45 -44 -95t-69 -93t-95 -71t-124 -28q-72 0 -118 28t-85 56l-84 61q-37 28 -92 27q-35 0 -61.5 -16t-48 -40t-36.5 -52l-28 -53l-131 41q16 45 44 95t69 93t95 70.5t124 27.5 q72 0 118 -27.5t85 -56.5z" />
<glyph unicode="&#xa2;" d="M938 973q-96 0 -175 -44t-134.5 -116t-86 -162t-30.5 -184q0 -49 11.5 -93t39 -77t73.5 -52.5t118 -19.5q37 0 76.5 6.5t74.5 16.5t61.5 21.5t39.5 21.5l14 -158q-33 -23 -105.5 -44t-164.5 -26l-68 -286h-166l70 297q-260 57 -260 387q0 111 32.5 219t98 199.5t162 157 t223.5 87.5l69 295h166l-67 -284q49 -4 96 -15.5t90 -34.5l-70 -151q-33 18 -76.5 28.5t-111.5 10.5z" />
<glyph unicode="&#xa3;" d="M690 764h387l-37 -154h-387l-4 -16q-25 -104 -60.5 -215t-76.5 -215h594l-39 -164h-807l109 290q51 142 86 290l8 30h-191l37 154h191l41 170q37 154 86 253t115.5 156.5t150.5 80t188 22.5q106 0 166 -19.5t107 -46.5l-86 -153q-47 25 -97.5 39t-113.5 14 q-59 0 -108.5 -16.5t-89.5 -56.5t-71.5 -105.5t-56.5 -163.5z" />
<glyph unicode="&#xa5;" d="M1053 217h-334l-51 -217h-185l52 217h-332l35 145h331l49 209h-329l35 146h278q-145 360 -227 702h196q14 -72 35 -151.5l44.5 -161.5t51 -163t58.5 -152l121 146l126 161l120 164q58 82 106 157h215q-123 -178 -268.5 -361.5t-286.5 -340.5h278l-34 -146h-334l-49 -209 h333z" />
<glyph unicode="&#xa9;" horiz-adv-x="1667" d="M1692 711q0 -176 -57.5 -313.5t-154 -232.5t-223.5 -145.5t-266 -50.5t-266 50.5t-223 145.5t-153.5 232.5t-57.5 313.5q0 174 57.5 312t153.5 233.5t223 145.5t266 50t266 -50t223.5 -145.5t154 -233.5t57.5 -312zM1542 711q0 135 -41 246.5t-113.5 191.5t-174 123 t-222.5 43t-222 -43t-174 -123t-114 -191.5t-41 -246.5t41 -247t114 -191.5t174 -123t222 -43.5t222.5 43.5t174 123t113.5 191.5t41 247zM1016 287q-88 0 -160 28.5t-124 82t-80.5 132t-28.5 181.5q0 100 31.5 178t85 132t125 83t151.5 29q53 0 97 -8.5t77 -19.5 t54.5 -22.5t29.5 -17.5l-47 -123q-25 14 -79 33.5t-126 19.5q-104 0 -174 -71.5t-70 -212.5q0 -129 63.5 -209t186.5 -80q80 0 132 17.5t81 31.5l39 -123q-23 -12 -93.5 -36.5t-170.5 -24.5z" />
<glyph unicode="&#xad;" horiz-adv-x="600" d="M219 702h496l-41 -178h-496z" />
<glyph unicode="&#xae;" horiz-adv-x="1667" d="M1692 711q0 -176 -57.5 -313.5t-154 -232.5t-223.5 -145.5t-266 -50.5t-266 50.5t-223 145.5t-153.5 232.5t-57.5 313.5q0 174 57.5 312t153.5 233.5t223 145.5t266 50t266 -50t223.5 -145.5t154 -233.5t57.5 -312zM1542 711q0 135 -41 246.5t-113.5 191.5t-174 123 t-222.5 43t-222 -43t-174 -123t-114 -191.5t-41 -246.5t41 -247t114 -191.5t174 -123t222 -43.5t222.5 43.5t174 123t113.5 191.5t41 247zM1194 303q-47 92 -105.5 175t-101.5 132h-137v-307h-145v795q55 12 116.5 18t112.5 6q178 0 269 -64.5t91 -199.5q0 -76 -40 -132 t-113 -87l47 -61l56 -81q30 -44 57.5 -94.5t50.5 -99.5h-158zM850 729h78q92 0 153.5 25.5t61.5 105.5q0 76 -58.5 105.5t-140.5 29.5q-23 0 -47.5 -1t-46.5 -3v-262z" />
<glyph unicode="&#xb4;" horiz-adv-x="770" d="M965 1450l-347 -262l-81 100l323 309z" />
<glyph unicode="&#x2000;" horiz-adv-x="800" />
<glyph unicode="&#x2001;" horiz-adv-x="1603" />
<glyph unicode="&#x2002;" horiz-adv-x="800" />
<glyph unicode="&#x2003;" horiz-adv-x="1603" />
<glyph unicode="&#x2004;" horiz-adv-x="534" />
<glyph unicode="&#x2005;" horiz-adv-x="399" />
<glyph unicode="&#x2006;" horiz-adv-x="266" />
<glyph unicode="&#x2007;" horiz-adv-x="266" />
<glyph unicode="&#x2008;" horiz-adv-x="198" />
<glyph unicode="&#x2009;" horiz-adv-x="319" />
<glyph unicode="&#x200a;" horiz-adv-x="88" />
<glyph unicode="&#x2010;" horiz-adv-x="600" d="M219 702h496l-41 -178h-496z" />
<glyph unicode="&#x2011;" horiz-adv-x="600" d="M219 702h496l-41 -178h-496z" />
<glyph unicode="&#x2012;" horiz-adv-x="600" d="M219 702h496l-41 -178h-496z" />
<glyph unicode="&#x2013;" horiz-adv-x="1015" d="M164 694h1024l-39 -162h-1024z" />
<glyph unicode="&#x2014;" horiz-adv-x="2039" d="M164 694h2048l-39 -162h-2048z" />
<glyph unicode="&#x2018;" horiz-adv-x="481" d="M373 1065q10 66 36.5 134.5t62.5 133t78 121.5t85 102l129 -53q-72 -111 -119 -215t-63 -223h-209z" />
<glyph unicode="&#x2019;" horiz-adv-x="481" d="M727 1536q-10 -66 -36.5 -134.5t-62.5 -133t-78 -121.5t-85 -103l-129 54q72 111 119 215t63 223h209z" />
<glyph unicode="&#x201a;" horiz-adv-x="481" d="M414 233q-10 -66 -37 -134t-62.5 -132.5t-77.5 -122t-85 -102.5l-129 53q72 111 118.5 215.5t63.5 222.5h209z" />
<glyph unicode="&#x201c;" horiz-adv-x="854" d="M373 1065q10 66 36.5 134.5t62.5 133t78 121.5t85 102l129 -53q-72 -111 -119 -215t-63 -223h-209zM746 1065q10 66 36.5 134.5t62.5 133t78 121.5t85 102l129 -53q-72 -111 -119 -215t-63 -223h-209z" />
<glyph unicode="&#x201d;" horiz-adv-x="854" d="M727 1536q-10 -66 -37 -134t-62.5 -132.5t-77.5 -122t-85 -102.5l-129 53q72 111 118.5 215.5t63.5 222.5h209zM1100 1536q-10 -66 -37 -134t-62.5 -132.5t-77.5 -122t-85 -102.5l-129 53q72 111 118.5 215.5t63.5 222.5h209z" />
<glyph unicode="&#x2022;" horiz-adv-x="737" d="M799 723q0 -53 -18.5 -100.5t-52.5 -82t-82 -56t-109 -21.5t-109.5 21.5t-82.5 56t-52.5 82t-18.5 100.5q0 51 18.5 99t52.5 83t82 56.5t110 21.5q61 0 109 -21.5t82 -56.5t52.5 -83t18.5 -99z" />
<glyph unicode="&#x2026;" horiz-adv-x="2039" d="M348 -27q-57 0 -90 31t-33 90q0 74 44 114t102 40q57 0 91 -32t34 -93q0 -35 -13.5 -62.5t-34 -47t-47 -30t-53.5 -10.5zM1030 -27q-57 0 -90 31t-33 90q0 74 44 114t102 40q57 0 91 -32t34 -93q0 -35 -13.5 -62.5t-34 -47t-47 -30t-53.5 -10.5zM1712 -27q-57 0 -90 31 t-33 90q0 74 44 114t102 40q57 0 91 -32t34 -93q0 -35 -13.5 -62.5t-34 -47t-47 -30t-53.5 -10.5z" />
<glyph unicode="&#x202f;" horiz-adv-x="319" />
<glyph unicode="&#x205f;" horiz-adv-x="399" />
<glyph unicode="&#x20ac;" d="M590 465v-37q0 -86 21.5 -142.5t58.5 -89t87 -46t107 -13.5q92 0 157.5 17.5t115.5 40.5l6 -162q-14 -8 -45 -18.5t-73 -19.5t-89 -15.5t-94 -6.5q-215 0 -328 112t-113 333v47h-188l35 147h164q6 51 16 102.5t25 104.5h-158l35 148h172q41 100 100.5 187t141 151.5 t185 102.5t230.5 38q80 0 136.5 -12.5t109.5 -34.5l-76 -154q-33 16 -75 27.5t-119 11.5q-80 0 -145.5 -24.5t-120 -66.5t-96.5 -100.5t-73 -125.5h486l-62 -148h-479q-16 -51 -26.5 -103t-16.5 -104h432l-61 -147h-383z" />
<glyph unicode="&#x2122;" horiz-adv-x="1554" d="M842 1419v-125h-215v-557h-142v557h-215v125h572zM1620 1419q16 -104 28.5 -267t28.5 -415h-143q-4 104 -10 226t-15 223l-50 -90q-28 -51 -53 -104l-48 -97q-23 -45 -35 -72h-100q-12 27 -35 72l-49 96l-55 103l-48 92q-8 -100 -14 -222t-10 -227h-142q16 252 28.5 415 t29.5 267h135l41 -85l52 -106l58 -116l60 -115l57 115l60 117l53 106l41 84h135z" />
<glyph unicode="&#xe000;" horiz-adv-x="1065" d="M0 1065h1065v-1065h-1065v1065z" />
<glyph unicode="&#xf001;" horiz-adv-x="1271" d="M1108 0h-190l256 1065h190zM1329 1257q-47 0 -78.5 29t-31.5 80q0 66 40.5 103.5t92.5 37.5q47 0 79.5 -29.5t32.5 -82.5q0 -61 -43 -99.5t-92 -38.5zM434 1161q25 102 63 182t96 134.5t138 83t191 28.5q59 0 112 -11t86 -28l-76 -151q-16 8 -49.5 17t-89.5 9 q-68 0 -115 -19.5t-79.5 -54t-52 -83.5t-33.5 -111l-23 -92h356l-36 -160h-357l-164 -676l-43 -186q-18 -82 -43.5 -153.5t-67.5 -138t-114 -138.5l-168 25q61 80 96 135t58.5 112.5t41.5 131.5l46 194z" />
<glyph unicode="&#xf002;" horiz-adv-x="1335" d="M1210 469l-20 -88q-10 -43 -10 -82q0 -70 33.5 -111t125.5 -51l-43 -155q-84 2 -142 25.5t-94 62.5t-52.5 92t-16.5 117q0 47 8.5 98t22.5 106l258 1073l199 33zM434 1161q25 102 63 182t96 134.5t138 83t191 28.5q59 0 112 -11t86 -28l-76 -151q-16 8 -49.5 17t-89.5 9 q-68 0 -115 -19.5t-79.5 -54t-52 -83.5t-33.5 -111l-23 -92h356l-36 -160h-357l-164 -676l-43 -186q-18 -82 -43.5 -153.5t-67.5 -138t-114 -138.5l-168 25q61 80 96 135t58.5 112.5t41.5 131.5l46 194z" />
<glyph unicode="&#xfb01;" horiz-adv-x="1271" d="M1108 0h-190l256 1065h190zM1329 1257q-47 0 -78.5 29t-31.5 80q0 66 40.5 103.5t92.5 37.5q47 0 79.5 -29.5t32.5 -82.5q0 -61 -43 -99.5t-92 -38.5zM434 1161q25 102 63 182t96 134.5t138 83t191 28.5q59 0 112 -11t86 -28l-76 -151q-16 8 -49.5 17t-89.5 9 q-68 0 -115 -19.5t-79.5 -54t-52 -83.5t-33.5 -111l-23 -92h356l-36 -160h-357l-164 -676l-43 -186q-18 -82 -43.5 -153.5t-67.5 -138t-114 -138.5l-168 25q61 80 96 135t58.5 112.5t41.5 131.5l46 194z" />
<glyph unicode="&#xfb02;" horiz-adv-x="1335" d="M1210 469l-20 -88q-10 -43 -10 -82q0 -70 33.5 -111t125.5 -51l-43 -155q-84 2 -142 25.5t-94 62.5t-52.5 92t-16.5 117q0 47 8.5 98t22.5 106l258 1073l199 33zM434 1161q25 102 63 182t96 134.5t138 83t191 28.5q59 0 112 -11t86 -28l-76 -151q-16 8 -49.5 17t-89.5 9 q-68 0 -115 -19.5t-79.5 -54t-52 -83.5t-33.5 -111l-23 -92h356l-36 -160h-357l-164 -676l-43 -186q-18 -82 -43.5 -153.5t-67.5 -138t-114 -138.5l-168 25q61 80 96 135t58.5 112.5t41.5 131.5l46 194z" />
<glyph unicode="&#xfb03;" horiz-adv-x="2033" d="M602 1065h356l-36 -160h-357l-164 -676l-43 -186q-18 -82 -43.5 -153.5t-67.5 -138t-114 -138.5l-168 25q61 80 96 135t58.5 112.5t41.5 131.5l46 194l227 950q25 102 63 182t96 134.5t138 83t191 28.5q72 0 136 -14t97 -31l-76 -151q-16 8 -56 20t-118 12 q-68 0 -115 -19.5t-79.5 -54t-52 -83.5t-33.5 -111zM1870 0h-190l256 1065h190zM2091 1257q-47 0 -78.5 29t-31.5 80q0 66 40.5 103.5t92.5 37.5q47 0 79.5 -29.5t32.5 -82.5q0 -61 -43 -99.5t-92 -38.5zM1196 1161q25 102 63 182t96 134.5t138 83t191 28.5q59 0 112 -11 t86 -28l-76 -151q-16 8 -49.5 17t-89.5 9q-68 0 -115 -19.5t-79.5 -54t-52 -83.5t-33.5 -111l-23 -92h356l-36 -160h-357l-164 -676l-43 -186q-18 -82 -43.5 -153.5t-67.5 -138t-114 -138.5l-168 25q61 80 96 135t58.5 112.5t41.5 131.5l46 194z" />
<glyph unicode="&#xfb04;" horiz-adv-x="2097" d="M602 1065h356l-36 -160h-357l-164 -676l-43 -186q-18 -82 -43.5 -153.5t-67.5 -138t-114 -138.5l-168 25q61 80 96 135t58.5 112.5t41.5 131.5l46 194l227 950q25 102 63 182t96 134.5t138 83t191 28.5q72 0 136 -14t97 -31l-76 -151q-16 8 -56 20t-118 12 q-68 0 -115 -19.5t-79.5 -54t-52 -83.5t-33.5 -111zM1972 469l-20 -88q-10 -43 -10 -82q0 -70 33.5 -111t125.5 -51l-43 -155q-84 2 -142 25.5t-94 62.5t-52.5 92t-16.5 117q0 47 8.5 98t22.5 106l258 1073l199 33zM1196 1161q25 102 63 182t96 134.5t138 83t191 28.5 q59 0 112 -11t86 -28l-76 -151q-16 8 -49.5 17t-89.5 9q-68 0 -115 -19.5t-79.5 -54t-52 -83.5t-33.5 -111l-23 -92h356l-36 -160h-357l-164 -676l-43 -186q-18 -82 -43.5 -153.5t-67.5 -138t-114 -138.5l-168 25q61 80 96 135t58.5 112.5t41.5 131.5l46 194z" />
</font>
</defs>
</svg>
