<?xml version="1.0" standalone="no"?>
<!DOCTYPE svg PUBLIC "-//W3C//DTD SVG 1.1//EN" "http://www.w3.org/Graphics/SVG/1.1/DTD/svg11.dtd" >
<svg xmlns="http://www.w3.org/2000/svg">
<metadata>
This is a custom SVG webfont generated by Font Squirrel.
Copyright   : Copyright 2010 Canonical Ltd  Licensed under the Ubuntu Font Licence 10
Designer    : Dalton Maag Ltd
Foundry     : Dalton Maag Ltd
Foundry URL : httpwwwdaltonmaagcom
</metadata>
<defs>
<font id="webfontRPnMKj6g" horiz-adv-x="1155" >
<font-face units-per-em="2048" ascent="1638" descent="-410" />
<missing-glyph horiz-adv-x="466" />
<glyph unicode=" "  horiz-adv-x="466" />
<glyph unicode="&#x09;" horiz-adv-x="466" />
<glyph unicode="&#xa0;" horiz-adv-x="466" />
<glyph unicode="!" horiz-adv-x="561" d="M352 1024q0 -88 -3 -165t-9 -148.5t-13.5 -139l-15.5 -135.5h-61q-18 137 -29.5 274.5t-11.5 313.5v395h143v-395zM393 88q0 -47 -29.5 -80t-82.5 -33t-83 33t-30 80t29.5 80t83.5 33q53 0 82.5 -33t29.5 -80z" />
<glyph unicode="&#x22;" horiz-adv-x="802" d="M630 1556v-77q0 -102 -11 -208t-29 -210h-68q-16 104 -27.5 209.5t-11.5 210.5v75h147zM319 1556v-77q0 -102 -11 -208t-29 -210h-68q-16 104 -27.5 209.5t-11.5 210.5v75h147z" />
<glyph unicode="#" horiz-adv-x="1337" d="M541 1030h379l73 389h125l-74 -389h197v-108h-219l-80 -424h299v-111h-319l-76 -387h-125l76 387h-379l-76 -387h-125l76 387h-197v111h217l80 424h-297v108h320l73 389h125zM438 498h379l82 424h-379z" />
<glyph unicode="$" d="M643 -223h-121v264q-139 2 -231 29.5t-137 54.5l39 115q27 -14 59.5 -28.5t75.5 -27t99 -19.5t132 -7q80 0 136.5 16t92 44t51 67t15.5 82q0 68 -25.5 112.5t-71.5 78.5t-112 59l-143 55q-55 20 -112.5 45.5t-103.5 63.5t-75 92.5t-29 130.5q0 152 83 234.5t257 107.5 v243h121v-237q96 -2 169 -19.5t122 -38.5l-35 -112q-35 14 -102.5 33.5t-182.5 19.5q-291 0 -290 -211q0 -57 20.5 -95t59 -66.5t94 -51.5t123.5 -47q74 -29 142 -58.5t120.5 -72.5t83 -104.5t30.5 -149.5q0 -143 -94 -231.5t-260 -100.5v-270z" />
<glyph unicode="%" horiz-adv-x="1701" d="M735 1083q0 -90 -24.5 -158.5t-67.5 -114.5t-98.5 -69.5t-116.5 -23.5t-116.5 23.5t-98.5 69.5t-67.5 114.5t-24.5 158.5t24.5 159t67.5 115t98.5 69.5t116.5 23.5t116.5 -23.5t98.5 -69.5t67.5 -115t24.5 -159zM614 1083q0 117 -47 187.5t-139 70.5t-139 -70.5 t-47 -187.5t47 -187.5t139 -70.5t139 70.5t47 187.5zM967 336q0 90 24.5 158.5t67.5 114.5t98 69.5t117 23.5q61 0 116.5 -23.5t98.5 -69.5t67.5 -114.5t24.5 -158.5t-24.5 -158.5t-67.5 -115t-98.5 -70t-116.5 -23.5t-116.5 23.5t-98.5 70t-67.5 115t-24.5 158.5zM1087 336 q0 -117 47.5 -187.5t139.5 -70.5t139 70.5t47 187.5t-47 187.5t-139 70.5t-139.5 -70.5t-47.5 -187.5zM1188 1419h135l-809 -1419h-135z" />
<glyph unicode="&#x26;" horiz-adv-x="1327" d="M995 365q43 72 70 156.5t37 170.5l115 -14q-10 -100 -45 -202.5t-97 -194.5q76 -78 136.5 -148t95.5 -133h-150q-29 47 -68.5 93t-87.5 93q-86 -92 -199.5 -148t-254.5 -56q-125 0 -210 35.5t-137.5 92t-75 124t-22.5 133.5q0 82 26 146.5t69 114.5t100 89t119 67 q-90 84 -126 164t-36 162q0 80 25.5 143.5t71.5 107.5t109.5 66.5t137.5 22.5q76 0 137.5 -23.5t102.5 -63.5t63.5 -95.5t22.5 -118.5q0 -76 -27 -136.5t-70 -107.5t-99 -84t-114 -67zM547 98q119 0 212 45t163 123l-430 441q-41 -20 -85.5 -47t-80 -67t-58 -95.5 t-22.5 -130.5q0 -47 16.5 -95.5t51 -86.5t92 -62.5t141.5 -24.5zM797 1147q0 80 -54.5 134t-140.5 54q-104 0 -158.5 -56t-54.5 -155q0 -72 32 -142.5t122 -152.5q111 53 182.5 125t71.5 193z" />
<glyph unicode="'" horiz-adv-x="491" d="M319 1556v-77q0 -102 -11 -208t-29 -210h-68q-16 104 -27.5 209.5t-11.5 210.5v75h147z" />
<glyph unicode="(" horiz-adv-x="634" d="M170 612q0 297 97.5 547t252.5 445l96 -66q-162 -201 -236.5 -425t-74.5 -501q0 -276 75 -500.5t236 -424.5l-96 -66q-156 195 -253 444.5t-97 546.5z" />
<glyph unicode=")" horiz-adv-x="634" d="M465 612q0 -297 -97.5 -546.5t-252.5 -444.5l-97 66q162 201 237 425t75 500t-75 500.5t-237 425.5l97 66q156 -195 253 -445t97 -547z" />
<glyph unicode="*" horiz-adv-x="966" d="M532 999l126 -127q56 -57 118 -139l-114 -84q-29 41 -52.5 79t-44 76l-40.5 78l-42 83l-42 -83q-19 -40 -39.5 -78t-44 -76t-52.5 -79l-115 84q31 41 60 75l57 64q29 31 61 62l66 65q-96 14 -177 28.5t-177 45.5l43 133q49 -16 90 -32.5t80 -34.5l78 -38l82 -40l-16 92 q-7 43 -12 85t-8 86t-3 95h139q0 -51 -3 -95t-8 -86t-13 -85l-15 -92l82 40l78 38q39 18 80 34.5t90 32.5l43 -133q-96 -31 -177.5 -45.5t-177.5 -28.5z" />
<glyph unicode="+" d="M115 649h403v445h119v-445h403v-114h-403v-447h-119v447h-403v114z" />
<glyph unicode="," horiz-adv-x="503" d="M332 195q2 -18 2 -33v-25q0 -127 -36 -243.5t-99 -219.5l-99 45q47 90 66.5 189.5t19.5 206.5q0 25 -1 41t-3 39h150z" />
<glyph unicode="-" horiz-adv-x="577" d="M57 657h463v-129h-463v129z" />
<glyph unicode="." horiz-adv-x="503" d="M365 88q0 -47 -30 -80t-83 -33t-83 33t-30 80t30 80t83 33t83 -33t30 -80z" />
<glyph unicode="/" horiz-adv-x="735" d="M88 -379h-135l698 1983h131z" />
<glyph unicode="0" d="M121 709q0 360 118.5 550.5t338.5 190.5q217 0 336.5 -190.5t119.5 -550.5q0 -358 -119.5 -549t-336.5 -191t-337 191t-120 549zM889 709q0 123 -15.5 234.5t-52.5 197.5t-96 137t-147 51q-90 0 -149.5 -51t-95.5 -137t-51.5 -198t-15.5 -234q0 -123 15.5 -235 t51.5 -196.5t95 -136t150 -51.5q88 0 147 51.5t96 136t52.5 196.5t15.5 235z" />
<glyph unicode="1" d="M219 1128q123 43 219.5 110t190.5 181h94v-1419h-133v1217q-23 -25 -58.5 -51.5t-80.5 -52.5t-94.5 -49.5t-98.5 -37.5z" />
<glyph unicode="2" d="M934 1067q0 -80 -28.5 -150.5t-77 -136t-109.5 -127.5l-125 -123l-104 -103q-50 -52 -90 -104.5t-63.5 -102.5t-23.5 -99v-4h670v-117h-817q0 4 -1 15.5t-1 33.5q0 96 34.5 179t89 157t121.5 137l128 123l97 95q46 46 81 95.5t55.5 104.5t20.5 121q0 143 -77 205.5 t-194 62.5q-66 0 -117 -16.5t-89 -38t-64.5 -44t-38.5 -34.5l-70 92q12 14 44 42t80 54.5t111.5 46t141.5 19.5q207 0 311.5 -101.5t104.5 -281.5z" />
<glyph unicode="3" d="M481 92q195 0 279 81t84 218q0 90 -34 149.5t-92.5 95.5t-135 51t-162.5 15h-21v111h47q55 0 113.5 11.5t107 42t80 81.5t31.5 131q0 68 -22.5 116t-60.5 76.5t-88 42t-105 13.5q-111 0 -172.5 -30.5t-100.5 -57.5l-57 104q20 14 52 33t75 35t95 27.5t114 11.5 q106 0 183 -26.5t128 -75t76 -115t25 -143.5q0 -125 -67 -204t-171 -114q57 -14 111.5 -44t97.5 -76t69.5 -111.5t26.5 -153.5q0 -90 -31.5 -166t-94 -132t-159 -88t-225.5 -32q-68 0 -124 9.5t-99 21.5t-72.5 24.5t-44.5 20.5l35 119q12 -8 41 -20.5t69 -23.5t90 -19.5 t109 -8.5z" />
<glyph unicode="4" d="M102 467q37 98 103.5 221t150.5 252t182.5 253t198.5 226h140v-925h176v-109h-176v-385h-132v385h-643v82zM745 494v776q-72 -74 -145.5 -170t-140 -199.5t-123.5 -208t-96 -198.5h505z" />
<glyph unicode="5" d="M489 92q102 0 171 23.5t110 64.5t58.5 95.5t17.5 117.5q0 82 -26.5 147.5t-94.5 110.5t-182.5 68.5t-290.5 23.5q12 104 20.5 191.5t14.5 168.5t9 157.5t5 158.5h639v-116h-522q-2 -39 -6 -101l-9 -126q-4 -65 -10 -124t-10 -94q158 -4 272.5 -39t188.5 -94t109.5 -143 t35.5 -187q0 -90 -29.5 -167.5t-91 -135t-156 -90.5t-223.5 -33q-66 0 -122 9.5t-100 21.5t-74.5 24.5t-45.5 20.5l35 119q12 -8 42 -20.5t70 -23.5t90 -19.5t105 -8.5z" />
<glyph unicode="6" d="M158 563q0 416 199.5 631t580.5 231l8 -112q-125 -8 -230.5 -38t-187.5 -92.5t-137 -160.5t-76 -242q55 29 133 50.5t166 21.5q115 0 195 -36t129 -95t71.5 -137t22.5 -164q0 -80 -24.5 -160t-76.5 -144.5t-131 -105.5t-188 -41q-223 0 -338.5 156.5t-115.5 437.5z M602 735q-94 0 -164.5 -21.5t-132.5 -49.5q-4 -35 -4 -55v-48q0 -96 13.5 -182t49 -151.5t95 -103.5t151.5 -38q76 0 129.5 27.5t86 72.5t48 104.5t15.5 125.5q0 164 -73 241.5t-214 77.5z" />
<glyph unicode="7" d="M358 0q12 170 62.5 360.5t123 368.5t157.5 327.5t165 239.5h-725v123h863v-119q-70 -84 -153 -224t-156.5 -315t-128 -371.5t-66.5 -389.5h-142z" />
<glyph unicode="8" d="M578 -31q-100 0 -181.5 29t-139.5 81t-90 122.5t-32 154.5q0 72 20.5 130.5t54.5 104.5t78 82t93 62q-125 61 -170 145.5t-45 182.5q0 88 30.5 159.5t85 122t130 78t166.5 27.5q106 0 184 -32t128 -83t73.5 -116.5t23.5 -135.5q0 -68 -20.5 -124t-53 -102t-73.5 -81 t-80 -59q143 -61 201.5 -153.5t58.5 -194.5q0 -88 -32 -162t-89 -126t-139 -82t-182 -30zM879 356q0 88 -34 143.5t-88.5 90.5t-122.5 55l-138 43q-104 -49 -162 -132t-58 -200q0 -57 18.5 -106t56.5 -86t94.5 -58.5t132.5 -21.5t132 21.5t94 58.5t56.5 86t18.5 106z M305 1077q0 -57 13.5 -104t50.5 -85t102.5 -70t171.5 -60q94 53 149.5 131t55.5 194q0 47 -15.5 92.5t-47 81t-83 57t-124.5 21.5q-68 0 -119 -20.5t-85 -56t-51.5 -83t-17.5 -98.5z" />
<glyph unicode="9" d="M1004 856q0 -428 -205 -644t-598 -216l-4 110q135 0 247.5 31t195.5 95.5t135 166t71 244.5q-55 -29 -133 -50.5t-166 -21.5q-115 0 -195 36t-129 95.5t-71.5 137.5t-22.5 161q0 78 24.5 158t77 144.5t131 105.5t187.5 41q223 0 339 -156.5t116 -437.5zM559 688 q94 0 165 21.5t132 50.5q2 25 3 47t1 51q0 96 -13 182t-49 151.5t-95.5 103.5t-151.5 38q-76 0 -129 -27.5t-86 -72.5t-48.5 -104.5t-15.5 -122.5q0 -162 73 -240t214 -78z" />
<glyph unicode=":" horiz-adv-x="503" d="M365 88q0 -47 -30 -80t-83 -33t-83 33t-30 80t30 80t83 33t83 -33t30 -80zM365 946q0 -47 -30 -80t-83 -33t-83 33t-30 80t30 80t83 33t83 -33t30 -80z" />
<glyph unicode=";" horiz-adv-x="503" d="M332 195q2 -18 2 -33v-25q0 -127 -36 -243.5t-99 -219.5l-99 45q47 90 66.5 189.5t19.5 206.5q0 25 -1 41t-3 39h150zM365 946q0 -47 -30 -80t-83 -33t-83 33t-30 80t30 80t83 33t83 -33t30 -80z" />
<glyph unicode="&#x3c;" d="M268 590l772 -324l-41 -112l-886 376v119l886 377l41 -113z" />
<glyph unicode="=" d="M115 434h925v-115h-925v115zM115 864h925v-114h-925v114z" />
<glyph unicode="&#x3e;" d="M113 913l41 113l886 -377v-119l-886 -376l-41 112l772 324z" />
<glyph unicode="?" horiz-adv-x="778" d="M330 1331q-137 0 -250 -61l-39 110q43 25 124 47.5t179 22.5q109 0 181.5 -27.5t115.5 -71.5t61.5 -99.5t18.5 -108.5q0 -74 -26.5 -131.5t-67.5 -106.5t-87 -94t-87 -93t-68 -103.5t-27 -122.5v-34q0 -11 2 -22h-106q-4 20 -6 44t-2 48q0 70 24.5 124.5t61.5 101.5 t80 89t79.5 86t61.5 94t25 114q0 57 -20.5 95t-54.5 60.5t-79 30.5t-94 8zM430 88q0 -47 -29.5 -80t-83.5 -33q-53 0 -82.5 33t-29.5 80t29.5 80t82.5 33t83 -33t30 -80z" />
<glyph unicode="@" horiz-adv-x="1925" d="M1407 119q-66 0 -105.5 22.5t-58.5 48.5q-37 -25 -100.5 -49t-138.5 -24q-94 0 -173 27.5t-137.5 84t-91.5 142.5t-33 202q0 96 30 180.5t86 147t139 98t190 35.5q98 0 177 -17.5t124 -35.5v-600q0 -80 27.5 -115t72.5 -35q70 0 114 44t69.5 111t36 141.5t10.5 136.5 q0 133 -45.5 253.5t-130.5 212t-207.5 145.5t-278.5 54q-158 0 -287 -50t-221 -146.5t-143 -236.5t-51 -321q0 -190 56 -333.5t154.5 -239.5t232.5 -144t290 -48q119 0 187.5 11t90.5 19l15 -112q-35 -10 -117 -22.5t-176 -12.5q-178 0 -336 52t-275.5 161.5t-186.5 275.5 t-69 393q0 219 66 383t179.5 272.5t266 162t324.5 53.5q164 0 308.5 -55.5t253 -158t171 -247.5t62.5 -326q0 -133 -29 -234t-79 -169t-117.5 -102.5t-145.5 -34.5zM995 227q70 0 113 11.5t90 40.5q-8 20 -11 51.5t-3 54.5v520q-16 4 -53 11.5t-103 7.5q-78 0 -138.5 -26 t-101 -72t-61 -110.5t-20.5 -140.5q0 -90 22.5 -155.5t61 -108.5t92 -63.5t112.5 -20.5z" />
<glyph unicode="A" horiz-adv-x="1312" d="M1139 0l-74 201l-68 188h-690l-69 -188l-72 -201h-146l154 413l140 362l137 329q68 158 143 315h123q76 -158 143 -315l136 -329l141 -362l155 -413h-153zM651 1260q-78 -176 -150 -359l-151 -393h604l-151 393z" />
<glyph unicode="B" horiz-adv-x="1290" d="M524 -12q-35 0 -81 3t-94 8t-91 12t-74 16v1366q37 10 82 17t93.5 12t94.5 7.5t85 2.5q115 0 218 -18.5t181 -61.5t124 -114t46 -175q0 -115 -58.5 -196t-156.5 -111q61 -14 112.5 -41t90.5 -69t60.5 -102.5t21.5 -144.5q0 -201 -160 -306t-494 -105zM324 680v-559 q31 -4 92 -9.5t125 -5.5q94 0 183 12.5t156.5 45.5t108.5 90t41 147q0 82 -28.5 136.5t-82 86t-130 44t-171.5 12.5h-294zM324 799h270q76 0 143.5 11t117.5 41t79 80t29 128q0 70 -31 118t-87.5 78.5t-134 44t-171.5 13.5q-76 0 -128.5 -4t-86.5 -11v-499z" />
<glyph unicode="C" horiz-adv-x="1247" d="M774 -31q-137 0 -255 49.5t-205 143.5t-137 232t-50 317q0 178 54.5 316t144.5 232.5t208.5 142.5t247.5 48q80 0 145.5 -10t115 -25.5t84 -31t53.5 -27.5l-45 -121q-51 31 -130 60.5t-196 29.5q-133 0 -232.5 -45t-167 -127t-101.5 -194.5t-34 -249.5q0 -141 34 -255 t99.5 -194t161 -123t217.5 -43q135 0 226.5 25.5t138.5 52.5l39 -119q-14 -10 -49 -23.5t-88.5 -27.5t-123 -23.5t-155.5 -9.5z" />
<glyph unicode="D" horiz-adv-x="1437" d="M1311 711q0 -182 -57.5 -317.5t-161 -225.5t-247 -135t-315.5 -45q-86 0 -180 9t-166 28v1368q72 20 166 29.5t180 9.5q172 0 315.5 -45.5t247 -135.5t161 -225t57.5 -315zM324 123q12 -2 62 -8t161 -6q154 0 268.5 42t192 119.5t116.5 189t39 251.5q0 139 -39 249.5 t-116.5 188.5t-192.5 120t-268 42q-111 0 -161 -6.5t-62 -8.5v-1173z" />
<glyph unicode="E" horiz-adv-x="1136" d="M184 0v1419h820v-121h-680v-493h606v-119h-606v-565h733v-121h-873z" />
<glyph unicode="F" horiz-adv-x="1064" d="M184 0v1419h809v-121h-669v-499h594v-121h-594v-678h-140z" />
<glyph unicode="G" horiz-adv-x="1347" d="M1069 672h139v-633q-39 -16 -152.5 -42t-279.5 -26q-139 0 -258 49.5t-206 142.5t-136 231t-49 317q0 178 53 316t144.5 231.5t212 142.5t258.5 49q158 0 260 -34t149 -64l-47 -119q-57 41 -155.5 66.5t-213.5 25.5q-106 0 -200 -39t-164 -116.5t-110 -192.5t-40 -266 q0 -141 33 -255t99.5 -195t165 -124t227.5 -43q104 0 174.5 11.5t95.5 21.5v545z" />
<glyph unicode="H" horiz-adv-x="1417" d="M1094 1419h139v-1419h-139v682h-770v-682h-140v1419h140v-616h770v616z" />
<glyph unicode="I" horiz-adv-x="507" d="M184 1419h140v-1419h-140v1419z" />
<glyph unicode="J" horiz-adv-x="997" d="M819 446q0 -102 -20.5 -189t-70.5 -151.5t-133 -100.5t-208 -36q-74 0 -135.5 13.5t-108.5 32t-78.5 39t-48.5 36.5l66 113q18 -16 46 -36t64.5 -36t81.5 -26.5t99 -10.5q158 0 232.5 83t74.5 284v958h139v-973z" />
<glyph unicode="K" horiz-adv-x="1226" d="M1051 0q-70 106 -157 210.5t-183.5 197t-195.5 168t-191 126.5v-702h-140v1419h140v-661l173 161l188 183l175 176q82 84 131 141h168l-143 -150l-178 -179l-188 -182l-167 -156q59 -37 128 -91.5t139.5 -119t139 -135t129 -142t109 -139.5t78.5 -125h-155z" />
<glyph unicode="L" horiz-adv-x="1028" d="M991 121v-121h-807v1419h140v-1298h667z" />
<glyph unicode="M" horiz-adv-x="1771" d="M821 205q-20 51 -58 135l-85 183l-96 205l-95 198l-79 161q-35 70 -52 99q-27 -256 -42 -556t-27 -630h-137q18 387 41.5 741.5t58.5 677.5h123q61 -102 131 -236l138 -279l133 -284l114 -253l113 253l134 284l138 279q70 134 131 236h117q35 -324 58.5 -678t41.5 -741 h-141q-12 330 -27.5 630t-42.5 556q-16 -29 -51 -99l-80 -161l-94 -198l-96 -205l-85 -183q-38 -84 -59 -135h-125z" />
<glyph unicode="N" horiz-adv-x="1452" d="M1151 0q-39 72 -99 168l-132 206l-152 225l-159 225l-153 206l-134 166v-1196h-138v1419h111q104 -117 224 -269l235 -311q115 -159 214 -310.5t162 -264.5v1155h138v-1419h-117z" />
<glyph unicode="O" horiz-adv-x="1585" d="M1458 711q0 -182 -53 -321.5t-144.5 -233t-212 -140.5t-255.5 -47t-256 47t-212.5 140.5t-144.5 232.5t-53 322q0 182 53 320t144.5 231.5t212 140.5t256.5 47q135 0 255.5 -47t212 -140.5t144.5 -231.5t53 -320zM1311 711q0 143 -37 256.5t-104.5 193.5t-163 122 t-213.5 42q-119 0 -214.5 -42t-163 -122t-104.5 -193.5t-37 -256.5t37 -257t104.5 -194t163 -123t214.5 -43t214 43t162.5 123t104.5 194t37 257z" />
<glyph unicode="P" horiz-adv-x="1212" d="M543 1432q301 0 448.5 -115t147.5 -326q0 -121 -43 -206t-123 -137t-195.5 -75.5t-261.5 -23.5h-192v-549h-140v1393q74 20 173.5 29.5t185.5 9.5zM549 1311q-78 0 -132.5 -5.5l-92.5 -9.5v-626h176q113 0 204 13t155.5 49t99 99.5t34.5 161.5q0 94 -37.5 155.5 t-100 97.5t-142.5 50.5t-164 14.5z" />
<glyph unicode="Q" horiz-adv-x="1585" d="M1458 711q0 -164 -43 -291t-116.5 -219t-174 -147.5t-215.5 -73.5q8 -57 52.5 -98.5t106.5 -70t138 -46t148 -27.5l-29 -117q-78 14 -168 35.5t-171 60.5t-140.5 99.5t-77.5 152.5q-131 4 -248 53.5t-204 142.5t-138 230t-51 316q0 182 53 320t144.5 231.5t212 140.5 t256.5 47q135 0 255.5 -47t212 -140.5t144.5 -231.5t53 -320zM1311 711q0 143 -37 256.5t-104.5 193.5t-163 122t-213.5 42q-119 0 -214.5 -42t-163 -122t-104.5 -193.5t-37 -256.5t37 -257t104.5 -194t163 -123t214.5 -43t214 43t162.5 123t104.5 194t37 257z" />
<glyph unicode="R" horiz-adv-x="1265" d="M1130 993q0 -160 -83.5 -252t-221.5 -133l85 -110q52 -70 107.5 -153t109 -173t90.5 -172h-150q-43 82 -93 164t-102.5 158.5l-101.5 142.5l-86 115q-66 -6 -131 -7h-229v-573h-140v1393q74 20 173.5 29.5t183.5 9.5q293 0 441 -111t148 -328zM557 1311 q-78 0 -136.5 -5.5t-96.5 -9.5v-604h192q96 0 182 9.5t149.5 41t100.5 91t37 161.5q0 94 -37 155.5t-96 97.5t-136 49.5t-159 13.5z" />
<glyph unicode="S" horiz-adv-x="1058" d="M489 90q166 0 258.5 60.5t92.5 195.5q0 78 -30 130t-79 88t-113 62l-133 54q-88 35 -157.5 71.5t-118.5 83t-74.5 105.5t-25.5 139q0 182 120.5 276.5t335.5 94.5q57 0 112.5 -8t103.5 -21.5t88 -30t67 -34.5l-49 -117q-59 41 -144.5 65.5t-183.5 24.5q-68 0 -124 -13 t-97 -43t-64.5 -75t-23.5 -108q0 -66 24.5 -111t68.5 -78t103 -59l129 -56q84 -35 159 -69.5t130.5 -81.5t88 -114.5t32.5 -166.5q0 -193 -134 -289t-364 -96q-82 0 -149.5 10.5t-120.5 25.5t-90 31.5t-57 29.5l45 120q20 -12 55 -28.5t82 -31.5t106 -25.5t131 -10.5z" />
<glyph unicode="T" horiz-adv-x="1122" d="M1085 1419v-121h-454v-1298h-139v1298h-455v121h1048z" />
<glyph unicode="U" horiz-adv-x="1392" d="M696 -31q-141 0 -240.5 43t-161 119t-89 177.5t-27.5 217.5v893h139v-874q0 -117 28 -202t77 -140.5t118.5 -82t155.5 -26.5t156 26.5t119 82t76.5 140.5t27.5 202v874h139v-893q0 -117 -27.5 -218t-89 -177t-161 -119t-240.5 -43z" />
<glyph unicode="V" horiz-adv-x="1277" d="M176 1419l119 -345l113 -315l112 -299q57 -146 123 -296l122 294l115 299l112 316l118 346h147l-168 -471l-140 -366l-123 -302l-121 -280h-130l-122 280l-124 302l-140 366l-169 471h156z" />
<glyph unicode="W" horiz-adv-x="1886" d="M1006 1245q98 -330 197.5 -597t193.5 -490q72 242 142.5 569.5t135.5 691.5h137q-37 -219 -74.5 -410.5t-78.5 -364.5t-86 -331.5t-98 -312.5h-150l-97 233l-95 241l-95 259l-96 287l-97 -287l-95 -259l-96 -241l-97 -233h-147q-55 154 -101.5 312.5t-86.5 331.5 t-75.5 364.5l-72.5 410.5h143l63.5 -353t68.5 -335t74 -306t75 -267l188 492q100 265 199 595h121z" />
<glyph unicode="X" horiz-adv-x="1245" d="M1004 1419h155l-457 -665l261 -378q127 -189 221 -376h-152q-31 61 -79 141l-104 168l-117 176l-116 166l-115 -166l-117 -176l-104 -168q-48 -80 -79 -141h-146q94 186 221 375l259 375l-457 669h160l383 -571z" />
<glyph unicode="Y" horiz-adv-x="1165" d="M514 0v584q-145 223 -267 431l-227 404h162q86 -180 189.5 -365.5t216.5 -353.5q109 168 213 353.5t192 365.5h152l-230 -404q-121 -210 -262 -427v-588h-139z" />
<glyph unicode="Z" horiz-adv-x="1146" d="M1044 1292l-113 -139l-138 -179l-151 -207l-152 -221l-141 -220q-67 -109 -120 -205h836v-121h-987v104q45 88 107 194l134 217l150 224l154 216l144 192q69 88 126 151h-776v121h927v-127z" />
<glyph unicode="[" horiz-adv-x="634" d="M205 1604h413v-103h-286v-1777h286v-103h-413v1983z" />
<glyph unicode="\" horiz-adv-x="735" d="M-47 1604h131l698 -1983h-135z" />
<glyph unicode="]" horiz-adv-x="634" d="M430 -379h-414v103h287v1777h-287v103h414v-1983z" />
<glyph unicode="^" d="M1028 729l-100 -53l-350 631l-351 -631l-100 53l385 690h131z" />
<glyph unicode="_" horiz-adv-x="1003" d="M-10 -264h1024v-115h-1024v115z" />
<glyph unicode="`" horiz-adv-x="770" d="M217 1583l324 -311l-68 -78l-350 285z" />
<glyph unicode="a" horiz-adv-x="1042" d="M510 96q78 0 136.5 5t98.5 14v372q-23 10 -71.5 21.5t-134.5 11.5q-49 0 -102.5 -7t-98.5 -30.5t-73.5 -64.5t-28.5 -109q0 -59 19 -100t55 -65.5t86.5 -36t113.5 -11.5zM498 1083q104 0 177 -29.5t118 -81.5t65.5 -124t20.5 -156v-667q-20 -6 -59.5 -13.5t-90.5 -15.5 t-113.5 -13.5t-128.5 -5.5q-84 0 -154.5 18.5t-122.5 58.5t-82 102.5t-30 152.5q0 86 33 147.5t92.5 101.5t141 58.5t178.5 18.5q29 0 60.5 -3t61 -8.5t51 -10.5t29.5 -9v66q0 55 -8 107t-35.5 94t-78 68t-131.5 26q-117 0 -174.5 -16.5t-84.5 -26.5l-18 116q35 16 108 30.5 t175 14.5z" />
<glyph unicode="b" horiz-adv-x="1193" d="M309 995q35 27 112 56.5t181 29.5q115 0 204 -41t150.5 -114.5t93 -175t31.5 -222.5q0 -129 -37.5 -231t-106.5 -174t-164 -110t-212 -38q-141 0 -233 18.5t-152 39.5v1532l133 24v-594zM309 125q31 -10 91.5 -19.5t158.5 -9.5q172 0 276.5 111.5t104.5 320.5 q0 88 -18.5 167t-59.5 137.5t-107.5 93.5t-164.5 35q-47 0 -90 -9.5t-80 -24t-64.5 -30.5t-46.5 -31v-741z" />
<glyph unicode="c" horiz-adv-x="942" d="M614 -23q-123 0 -217 39t-156.5 112t-95 174t-32.5 224q0 125 33.5 227.5t97 176.5t153.5 113.5t203 39.5q86 0 161 -14t116 -37l-35 -114q-41 20 -92.5 32.5t-137.5 12.5q-176 0 -267 -114t-91 -323q0 -94 20.5 -173t66.5 -135t118.5 -88t177.5 -32q86 0 144.5 19.5 t84.5 34.5l29 -115q-37 -20 -116 -40t-165 -20z" />
<glyph unicode="d" horiz-adv-x="1193" d="M1018 33q-59 -20 -151.5 -39t-233.5 -19q-117 0 -212 38t-164 110t-106.5 174t-37.5 231q0 121 31.5 222.5t93 175t150.5 114.5t204 41q104 0 181 -29.5t112 -56.5v570l133 24v-1556zM885 866q-18 14 -46 30.5t-65 31t-80 24t-90 9.5q-98 0 -164.5 -35t-107.5 -93.5 t-59.5 -137.5t-18.5 -167q0 -209 104.5 -320.5t276.5 -111.5q98 0 158.5 9.5t91.5 19.5v741z" />
<glyph unicode="e" horiz-adv-x="1122" d="M113 530q0 139 40 243t104.5 173.5t147 103t170.5 33.5q195 0 310.5 -127t115.5 -391q0 -16 -1 -32.5t-3 -30.5h-743q6 -195 96 -299.5t287 -104.5q109 0 172 20.5t92 35.5l25 -115q-29 -16 -108 -39t-185 -23q-139 0 -237.5 41t-162 115t-92 175t-28.5 222zM864 614 q-4 166 -77.5 258.5t-208.5 92.5q-72 0 -128.5 -29t-98.5 -77t-65.5 -111.5t-27.5 -133.5h606z" />
<glyph unicode="f" horiz-adv-x="770" d="M565 1589q86 0 140.5 -13t70.5 -24l-26 -114q-23 10 -67 21t-112 11q-141 0 -201.5 -71.5t-60.5 -229.5v-110h426v-113h-426v-946h-133v1174q0 207 95 311t294 104z" />
<glyph unicode="g" horiz-adv-x="1173" d="M866 123q-12 -10 -36.5 -23.5t-60.5 -28t-82 -23.5t-103 -9q-92 0 -178.5 28.5t-151 90t-103 159t-38.5 236.5q0 113 34.5 209t99 166.5t158 110.5t209.5 40q147 0 236.5 -19.5t146.5 -37.5v-967q0 -238 -122.5 -339t-370.5 -101q-102 0 -185 15.5t-143 35.5l27 121 q49 -23 134 -39t171 -16q188 0 273 72.5t85 248.5v70zM864 930q-35 10 -90 19t-158 9q-86 0 -152.5 -29.5t-113.5 -83.5t-71.5 -129t-24.5 -165q0 -104 28.5 -179t74.5 -122t105.5 -68.5t121.5 -21.5q90 0 164.5 26.5t115.5 61.5v682z" />
<glyph unicode="h" horiz-adv-x="1165" d="M176 0v1565l133 24v-561q66 25 133.5 38t135.5 13q123 0 204.5 -34.5t131 -99t68.5 -155t19 -198.5v-592h-133v549q0 113 -15 190.5t-51 126.5t-95.5 70.5t-149.5 21.5q-35 0 -75 -6t-74.5 -13t-62.5 -15.5t-36 -12.5v-911h-133z" />
<glyph unicode="i" horiz-adv-x="485" d="M309 0h-133v1059h133v-1059zM340 1378q0 -47 -28.5 -74.5t-69.5 -27.5t-70 27.5t-29 74.5t29 75t70 28t69.5 -28t28.5 -75z" />
<glyph unicode="j" horiz-adv-x="485" d="M-23 -383q-23 0 -56.5 6t-49.5 15l18 108q14 -4 39 -8t47 -4q121 0 161 67.5t40 202.5v1055h133v-1049q0 -201 -76 -297t-256 -96zM340 1378q0 -47 -28.5 -74.5t-69.5 -27.5t-70 27.5t-29 74.5t29 75t70 28t69.5 -28t28.5 -75z" />
<glyph unicode="k" horiz-adv-x="1013" d="M459 575q63 -43 136 -110.5t143.5 -146t133 -161.5t105.5 -157h-158q-49 82 -111.5 161t-131 148.5t-137 127t-130.5 95.5v-532h-133v1565l133 24v-1007l115 112l128 129l122 127l98 109h160l-107 -111l-124 -128l-128 -130z" />
<glyph unicode="l" horiz-adv-x="522" d="M444 -18q-68 2 -118 17t-83.5 47t-51 82t-17.5 126v1311l133 24v-1331q0 -49 9.5 -78.5t27.5 -47t48 -26t71 -14.5z" />
<glyph unicode="m" horiz-adv-x="1767" d="M176 1022q59 16 154.5 36.5t247.5 20.5q201 0 290 -116q10 8 40 27.5t75 40t105.5 34.5t134.5 14q121 0 195.5 -35.5t115.5 -100t55.5 -155t14.5 -196.5v-592h-134v549q0 104 -9 181t-36.5 127t-79 75.5t-133.5 25.5q-61 0 -111 -11t-87 -27.5t-60.5 -33t-33.5 -24.5 q18 -53 27 -119.5t9 -140.5v-602h-133v549q0 104 -9 181t-37.5 127t-81 75.5t-138.5 25.5q-96 0 -162.5 -10t-85.5 -18v-930h-133v1022z" />
<glyph unicode="n" horiz-adv-x="1165" d="M176 1022q59 16 159.5 36.5t246.5 20.5q121 0 201.5 -34.5t129 -99t68.5 -155t20 -198.5v-592h-133v549q0 113 -15 190.5t-51 126.5t-94.5 70.5t-146.5 21.5q-94 0 -162.5 -10t-89.5 -18v-930h-133v1022z" />
<glyph unicode="o" horiz-adv-x="1191" d="M1079 528q0 -125 -35.5 -227t-100 -174t-153 -112t-194.5 -40t-194.5 40t-153 112t-100 174t-35.5 227t35.5 227.5t100 175.5t152.5 112.5t195 39.5q106 0 194.5 -39.5t153 -112.5t100 -175.5t35.5 -227.5zM938 528q0 199 -92 317t-250 118t-250 -118t-92 -317t92 -315.5 t250 -116.5t250 116.5t92 315.5z" />
<glyph unicode="p" horiz-adv-x="1193" d="M309 190q18 -14 46 -30.5t65 -30.5t80 -23.5t90 -9.5q98 0 164.5 34t107.5 92.5t59.5 137t18.5 166.5q0 209 -104.5 320.5t-276.5 111.5q-98 0 -158.5 -9t-91.5 -19v-740zM309 -379h-133v1401q59 20 151.5 38.5t233.5 18.5q117 0 212 -37.5t164 -109.5t106.5 -174.5 t37.5 -231.5q0 -121 -31.5 -222t-93 -174t-150.5 -114t-204 -41q-104 0 -181 30t-112 56v-440z" />
<glyph unicode="q" horiz-adv-x="1193" d="M885 930q-31 10 -91.5 19t-158.5 9q-172 0 -276.5 -111.5t-104.5 -320.5q0 -88 18.5 -166.5t59.5 -137t107.5 -92.5t164.5 -34q47 0 90 9.5t80 23.5t64.5 30.5t46.5 30.5v740zM885 61q-35 -27 -112 -56.5t-181 -29.5q-115 0 -204 41t-150.5 114t-93 174.5t-31.5 221.5 q0 129 37.5 231.5t106.5 174.5t164 109.5t212 37.5q141 0 233 -18.5t152 -38.5v-1401h-133v440z" />
<glyph unicode="r" horiz-adv-x="765" d="M537 1079q66 0 124 -10t80 -20l-26 -115q-16 8 -66.5 17.5t-132.5 9.5q-86 0 -138 -12.5t-69 -20.5v-928h-133v1010q51 23 141.5 46t219.5 23z" />
<glyph unicode="s" horiz-adv-x="876" d="M393 94q115 0 189.5 38t74.5 128q0 43 -13 74t-44 55.5t-81 46.5l-124 53q-59 25 -112.5 50.5t-94.5 59.5t-65.5 81t-24.5 115q0 129 97.5 208.5t267.5 79.5q109 0 179.5 -18t98.5 -33l-30 -119q-25 12 -83.5 33t-170.5 21q-45 0 -85 -9.5t-71 -29t-49.5 -49t-18.5 -72.5 t16.5 -74t48.5 -54.5t78 -43.5l105 -45q61 -25 117.5 -50.5t99.5 -61.5t70 -86t27 -126q0 -143 -107.5 -217t-294.5 -74q-139 0 -213 24t-98 36l35 121q6 -4 26.5 -13.5t55 -20.5t83 -19.5t111.5 -8.5z" />
<glyph unicode="t" horiz-adv-x="792" d="M301 1059h422v-113h-422v-563q0 -90 15.5 -146.5t44 -87t69.5 -41t90 -10.5q84 0 135.5 19.5t79.5 36.5l33 -111q-29 -18 -100.5 -42t-155.5 -24q-98 0 -164.5 26t-106.5 78t-56.5 130t-16.5 184v975l133 25v-336z" />
<glyph unicode="u" horiz-adv-x="1165" d="M989 37q-59 -16 -159.5 -36.5t-245.5 -20.5q-119 0 -199 34.5t-129 98t-70.5 153.5t-21.5 199v594h133v-551q0 -113 16.5 -190.5t53 -126t95 -70t142.5 -21.5q94 0 164 10.5t88 18.5v930h133v-1022z" />
<glyph unicode="v" horiz-adv-x="983" d="M496 143q43 88 88 202t87 235.5t77.5 245.5t60.5 233h133q-37 -145 -82 -286.5t-95 -277t-105 -259.5l-105 -236h-127q-53 111 -106.5 235.5t-103.5 260t-95 276.5t-82 287h141q25 -109 61 -233t77.5 -245.5t87 -235.5t88.5 -202z" />
<glyph unicode="w" horiz-adv-x="1587" d="M858 1059q18 -102 48 -218t66 -236t75.5 -236.5t80.5 -218.5q35 78 74 189.5t78 235t72.5 249.5t56.5 235h131q-74 -311 -161 -569.5t-191 -489.5h-125q-31 72 -65 161l-69 190q-36 101 -70 213t-64 229q-31 -117 -65 -228.5t-70 -213.5l-69 -190q-34 -89 -65 -161h-127 q-104 231 -191 489.5t-161 569.5h141q23 -109 57 -235t72.5 -249.5t78.5 -234.5t75 -188q39 102 79 218.5t74.5 235.5l65.5 234.5t53 218.5h115z" />
<glyph unicode="x" horiz-adv-x="1021" d="M508 479l-90 -125l-87 -129q-42 -63 -77 -121.5t-59 -103.5h-138q84 158 176 294l189 267l-344 498h155l275 -406l278 406h146l-338 -490l92 -125l98 -140q49 -73 95.5 -150.5t85.5 -153.5h-144l-59.5 103.5t-76.5 121.5l-88 129z" />
<glyph unicode="y" horiz-adv-x="970" d="M465 -23q-68 125 -130.5 260.5t-116.5 273.5t-99 276.5t-78 271.5h141q23 -98 57.5 -212t78.5 -234.5t97.5 -247.5t114.5 -250q45 127 80 239.5t65 224t57 228.5l59 252h133q-66 -297 -150 -577.5t-182 -514.5q-39 -92 -80 -158.5t-91 -109.5t-116.5 -63.5t-157.5 -20.5 q-51 0 -93 12.5t-52 18.5l27 110q8 -6 46 -17t79 -11q57 0 103 12t83 42t66.5 76.5t58.5 118.5z" />
<glyph unicode="z" horiz-adv-x="931" d="M834 950q-47 -53 -123 -147l-162 -210q-86 -116 -170 -242t-148 -238h621v-113h-774v96q53 100 132 221l163 239l164 221l135 169h-563v113h725v-109z" />
<glyph unicode="{" horiz-adv-x="653" d="M270 592q33 -18 59.5 -44t45 -65t28 -94t9.5 -131v-219q0 -96 4 -160.5t25.5 -104.5t66.5 -56.5t129 -16.5v-102h-16q-98 0 -164 22.5t-104 65.5t-53 106.5t-15 147.5v397q0 37 -11.5 72.5t-36 64.5t-61.5 47.5t-88 18.5v100q51 0 88 18.5t61.5 47t36 64.5t11.5 73v397 q0 82 15 146.5t53 107.5t103.5 65.5t164.5 22.5h16v-102q-84 0 -129 -16.5t-66.5 -56.5t-25.5 -104.5t-4 -160.5v-219q0 -76 -9.5 -130.5t-28 -93t-45 -64.5t-59.5 -44z" />
<glyph unicode="|" horiz-adv-x="536" d="M205 1604h127v-1983h-127v1983z" />
<glyph unicode="}" horiz-adv-x="653" d="M383 592q-33 18 -59.5 44t-45 64.5t-27.5 93t-9 130.5v219q0 96 -4.5 160.5t-26 104.5t-66.5 56.5t-129 16.5v102h17q98 0 163.5 -22.5t103.5 -65.5t53.5 -107.5t15.5 -146.5v-397q0 -37 11 -73t35.5 -64.5t61.5 -47t88 -18.5v-100q-51 0 -88 -18.5t-61.5 -47.5 t-35.5 -64.5t-11 -72.5v-397q0 -84 -15.5 -147.5t-53.5 -106.5t-103.5 -65.5t-163.5 -22.5h-17v102q84 0 129 16.5t66.5 56.5t26 104.5t4.5 160.5v219q0 76 9 131t27.5 94t45 65t59.5 44z" />
<glyph unicode="~" d="M786 455q-70 0 -125 28.5t-105 63.5t-98 63.5t-102 28.5q-39 0 -65.5 -19.5t-44 -47t-26.5 -55.5t-13 -44l-105 25q8 37 25.5 81t47.5 81.5t77 63.5t117 26t125 -29t105 -63.5t98 -63.5t102 -29q39 0 65.5 19.5t44 47t26.5 55.5t13 44l105 -24q-10 -37 -26.5 -81 t-46.5 -82t-77 -63.5t-117 -25.5z" />
<glyph unicode="&#xa2;" d="M623 70q-98 14 -174 59t-126.5 113.5t-77 157.5t-26.5 194q0 104 27.5 195.5t80 161t127 115.5t169.5 60v293h120v-289q63 0 122 -13t116 -36l-35 -112q-43 18 -101.5 32.5t-121.5 14.5q-178 0 -270.5 -105.5t-92.5 -316.5q0 -90 21.5 -166t68 -131t119 -86t174.5 -31 q86 0 145.5 17.5t86.5 29.5l24 -110q-12 -8 -39.5 -17.5t-62.5 -16.5t-75 -12t-79 -8v-286h-120v293z" />
<glyph unicode="&#xa3;" d="M496 745h411v-112h-411v-19q0 -121 -7.5 -246.5t-27.5 -250.5h620v-117h-776q23 141 38 289.5t15 318.5v25h-196v112h196v197q0 152 31 250t87 154.5t133 78t169 21.5q86 0 150.5 -17.5t111.5 -39.5l-36 -121q-100 53 -242 53q-63 0 -113.5 -16.5t-84.5 -58.5t-51 -111.5 t-17 -173.5v-216z" />
<glyph unicode="&#xa5;" d="M512 0v236h-334v108h334v244h-334v108h305l-227 368q-104 177 -193 355h142q80 -170 176 -337t201 -322q104 156 199.5 322.5t174.5 336.5h136q-88 -178 -194 -355l-228 -368h309v-108h-334v-244h334v-108h-334v-236h-133z" />
<glyph unicode="&#xa9;" horiz-adv-x="1691" d="M856 291q-80 0 -148.5 28.5t-119.5 82t-80 132t-29 179.5q0 98 32 175t85 131t122.5 81.5t145.5 27.5q100 0 163 -27.5t85 -43.5l-39 -92q-31 16 -79 35.5t-130 19.5q-113 0 -187.5 -80t-74.5 -227q0 -152 73 -233t197 -81q88 0 138.5 19.5t72.5 34.5l35 -99 q-27 -16 -94.5 -39.5t-167.5 -23.5zM1540 711q0 -176 -57.5 -313.5t-152.5 -232.5t-221 -145.5t-263 -50.5t-263 50.5t-221.5 145.5t-152.5 232.5t-57 313.5q0 174 57 312t152.5 232.5t221.5 144.5t263 50t263 -50t221 -144.5t152.5 -232.5t57.5 -312zM1419 711 q0 141 -43 257.5t-118.5 199.5t-181 128t-230.5 45t-230.5 -45t-181.5 -128t-119 -199.5t-43 -257.5t43 -258t119 -200t181.5 -129t230.5 -46t230.5 46t181 129t118.5 200t43 258z" />
<glyph unicode="&#xad;" horiz-adv-x="577" d="M57 657h463v-129h-463v129z" />
<glyph unicode="&#xae;" horiz-adv-x="1691" d="M1067 305q-53 96 -110.5 183t-100.5 139q-14 -2 -27 -2h-22h-129v-320h-113v793q47 10 105.5 16t109.5 6q174 0 265.5 -63.5t91.5 -192.5q0 -74 -41 -132t-121 -87q16 -18 44 -56t58.5 -85t61 -100.5t53.5 -98.5h-125zM678 717h102q51 0 94.5 6t75 23.5t49 46t17.5 73.5 q0 43 -19.5 73t-51.5 48.5t-73 26.5t-86 8q-31 0 -58.5 -1t-49.5 -3v-301zM1540 711q0 -176 -57.5 -313.5t-152.5 -232.5t-221 -145.5t-263 -50.5t-263 50.5t-221.5 145.5t-152.5 232.5t-57 313.5q0 174 57 312t152.5 232.5t221.5 144.5t263 50t263 -50t221 -144.5 t152.5 -232.5t57.5 -312zM1419 711q0 141 -43 257.5t-118.5 199.5t-181 128t-230.5 45t-230.5 -45t-181.5 -128t-119 -199.5t-43 -257.5t43 -258t119 -200t181.5 -129t230.5 -46t230.5 46t181 129t118.5 200t43 258z" />
<glyph unicode="&#xb4;" horiz-adv-x="770" d="M647 1479l-350 -285l-68 78l324 311z" />
<glyph unicode="&#x2000;" horiz-adv-x="800" />
<glyph unicode="&#x2001;" horiz-adv-x="1603" />
<glyph unicode="&#x2002;" horiz-adv-x="800" />
<glyph unicode="&#x2003;" horiz-adv-x="1603" />
<glyph unicode="&#x2004;" horiz-adv-x="534" />
<glyph unicode="&#x2005;" horiz-adv-x="399" />
<glyph unicode="&#x2006;" horiz-adv-x="266" />
<glyph unicode="&#x2007;" horiz-adv-x="266" />
<glyph unicode="&#x2008;" horiz-adv-x="198" />
<glyph unicode="&#x2009;" horiz-adv-x="319" />
<glyph unicode="&#x200a;" horiz-adv-x="88" />
<glyph unicode="&#x2010;" horiz-adv-x="577" d="M57 657h463v-129h-463v129z" />
<glyph unicode="&#x2011;" horiz-adv-x="577" d="M57 657h463v-129h-463v129z" />
<glyph unicode="&#x2012;" horiz-adv-x="577" d="M57 657h463v-129h-463v129z" />
<glyph unicode="&#x2013;" horiz-adv-x="1015" d="M-4 651h1024v-116h-1024v116z" />
<glyph unicode="&#x2014;" horiz-adv-x="2039" d="M-4 651h2048v-116h-2048v116z" />
<glyph unicode="&#x2018;" horiz-adv-x="471" d="M152 1110q0 117 34.5 222.5t104.5 209.5l98 -45q-51 -98 -70.5 -180t-19.5 -154v-39q0 -16 2 -34h-149v20z" />
<glyph unicode="&#x2019;" horiz-adv-x="471" d="M319 1497q0 -117 -34.5 -222.5t-104.5 -209.5l-98 45q51 98 70.5 180t19.5 154v39q0 16 -2 35h149v-21z" />
<glyph unicode="&#x201c;" horiz-adv-x="802" d="M152 1110q0 117 34.5 222.5t104.5 209.5l98 -45q-51 -98 -70.5 -180t-19.5 -154v-39q0 -16 2 -34h-149v20zM484 1110q0 117 34.5 222.5t104.5 209.5l98 -45q-51 -98 -70.5 -180t-19.5 -154v-39q0 -16 2 -34h-149v20z" />
<glyph unicode="&#x201d;" horiz-adv-x="802" d="M319 1497q0 -117 -34.5 -222.5t-104.5 -209.5l-98 45q51 98 70.5 180t19.5 154v39q0 16 -2 35h149v-21zM651 1497q0 -117 -34.5 -222.5t-104.5 -209.5l-98 45q51 98 70.5 180t19.5 154v39q0 16 -2 35h149v-21z" />
<glyph unicode="&#x2022;" horiz-adv-x="737" d="M614 723q0 -49 -17 -94t-49 -79t-77 -53.5t-102 -19.5t-103.5 19.5t-78 53.5t-48 79t-16.5 94t16.5 93t48 78t77.5 54.5t104 20.5q57 0 102 -20.5t77 -54.5t49 -78t17 -93z" />
<glyph unicode="&#x2026;" horiz-adv-x="2039" d="M451 88q0 -47 -30 -80t-83 -33t-83 33t-30 80t30 80t83 33t83 -33t30 -80zM1133 88q0 -47 -30 -80t-83 -33t-83 33t-30 80t30 80t83 33t83 -33t30 -80zM1815 88q0 -47 -30 -80t-83 -33t-83 33t-30 80t30 80t83 33t83 -33t30 -80z" />
<glyph unicode="&#x202f;" horiz-adv-x="319" />
<glyph unicode="&#x205f;" horiz-adv-x="399" />
<glyph unicode="&#x20ac;" d="M428 838q-2 -33 -3 -66t-1 -63v-58q0 -29 2 -57h436l-22 -109h-404q12 -78 37 -148.5t69 -123.5t113.5 -86t169.5 -33q92 0 157 17.5t101 38.5l31 -115q-14 -8 -43 -18.5t-67.5 -19.5t-86 -16.5t-96.5 -7.5q-133 0 -226 41t-155.5 111t-98.5 163t-50 197h-199v109h187 q-2 29 -3 57v58q0 63 7 129h-191v108h203q18 100 55 190.5t100.5 159t153.5 108.5t215 40q45 0 81 -3t65.5 -8.5t57.5 -13.5t56 -18l-32 -119q-49 20 -111 31.5t-117 11.5q-92 0 -157.5 -30.5t-109.5 -83t-70.5 -121t-39.5 -144.5h490l-21 -108h-483z" />
<glyph unicode="&#x2122;" horiz-adv-x="1460" d="M569 1419v-82h-219v-581h-90v581h-219v82h528zM1004 973l64 124l70 128l63 113l48 81h72q8 -49 17.5 -119.5t16.5 -157.5t13 -185.5t10 -200.5h-92q-6 147 -15 274t-22 219l-57 -100l-64 -115l-56 -107l-40 -79h-65l-40 79l-57 107l-63 115l-57 100q-12 -92 -21.5 -219 t-15.5 -274h-88q2 102 9 200.5t14 185.5t16.5 157.5t17.5 119.5h76l48 -81l63 -113l70 -128z" />
<glyph unicode="&#xe000;" horiz-adv-x="1060" d="M0 1060h1060v-1060h-1060v1060z" />
<glyph unicode="&#xfb01;" horiz-adv-x="1255" d="M565 1589q86 0 140.5 -13t70.5 -24l-26 -114q-23 10 -67 21t-112 11q-141 0 -201.5 -71.5t-60.5 -229.5v-110h426v-113h-426v-946h-133v1174q0 207 95 311t294 104zM1079 0h-133v1059h133v-1059zM1110 1378q0 -47 -28.5 -74.5t-69.5 -27.5t-70 27.5t-29 74.5t29 75t70 28 t69.5 -28t28.5 -75z" />
<glyph unicode="&#xfb02;" horiz-adv-x="1292" d="M565 1589q86 0 140.5 -13t70.5 -24l-26 -114q-23 10 -67 21t-112 11q-141 0 -201.5 -71.5t-60.5 -229.5v-110h426v-113h-426v-946h-133v1174q0 207 95 311t294 104zM1214 -18q-68 2 -118 17t-83.5 47t-51 82t-17.5 126v1311l133 24v-1331q0 -49 9.5 -78.5t27.5 -47 t48 -26t71 -14.5z" />
<glyph unicode="&#xfb03;" horiz-adv-x="2025" d="M565 1589q86 0 140.5 -13t70.5 -24l-26 -114q-23 10 -67 21t-112 11q-141 0 -201.5 -71.5t-60.5 -229.5v-110h426v-113h-426v-946h-133v1174q0 207 95 311t294 104zM1335 1589q86 0 140.5 -13t70.5 -24l-26 -114q-23 10 -67 21t-112 11q-141 0 -201.5 -71.5t-60.5 -229.5 v-110h426v-113h-426v-946h-133v1174q0 207 95 311t294 104zM1849 0h-133v1059h133v-1059zM1880 1378q0 -47 -28.5 -74.5t-69.5 -27.5t-70 27.5t-29 74.5t29 75t70 28t69.5 -28t28.5 -75z" />
<glyph unicode="&#xfb04;" horiz-adv-x="2062" d="M565 1589q86 0 140.5 -13t70.5 -24l-26 -114q-23 10 -67 21t-112 11q-141 0 -201.5 -71.5t-60.5 -229.5v-110h426v-113h-426v-946h-133v1174q0 207 95 311t294 104zM1335 1589q86 0 140.5 -13t70.5 -24l-26 -114q-23 10 -67 21t-112 11q-141 0 -201.5 -71.5t-60.5 -229.5 v-110h426v-113h-426v-946h-133v1174q0 207 95 311t294 104zM1984 -18q-68 2 -118 17t-83.5 47t-51 82t-17.5 126v1311l133 24v-1331q0 -49 9.5 -78.5t27.5 -47t48 -26t71 -14.5z" />
</font>
</defs>
</svg>
